Alice Cooper – Good to See You Again – Live 1973: The Billion Dollar Babies Tour (2010) Blu-ray 1080p VC-1 DTS-HD MA 5.1 + BDRip 720p

Title: Alice Cooper – Good to See You Again – Live 1973: The Billion Dollar Babies Tour
Release Date: 2010
Genre: Rock
Artists: Alice Cooper – vocals, harmonica, Glen Buxton – guitar, Michael Bruce – rhythm guitar, keyboards, backing vocals, Dennis Dunaway – bass, backing vocals, Neal Smith – drums

Production/Label: Shout Factory
Duration: 01:38:28 + 00:59:35
Quality: Blu-ray
Container: BDMV
Video codec: VC-1
Audio codec: DTS, PCM
Video: VC-1 17951 kbps 1920*1080p / 23,976 fps / 16:9 / Advanced Profile 3
Audio #1: English DTS-HD MA 5.1 / 48 kHz / 4704 kbps / 24-bit (DTS Core: 5.1 / 48 kHz / 1509 kbps / 24-bit)
Audio #2: English LPCM Audio / 2.0 / 48 kHz / 2304 kbps / 24-bit
Audio #3: English LPCM Audio / 2.0 / 48 kHz / 2304 kbps / 24-bit (Commentary by Alice Cooper)
Size: 21.69 GB

Good To See You Again, Alice Cooper is one of the great lost rock films. The movie, which captures the original band lineup in the middle of the legendary 1973 Billion Dollar Babies tour, has never before been available on home video or DVD.
• Shout! Factory is proud to present the original cut of the film (including skits featuring the band) which was given a very limited theatrical run—mostly at midnight screenings—in the mid-’70s. This is the early cut, predating the Hollywood version. Now available for the first time since the theatrical release, Good To See You Again, Alice Cooper boasts a new high-definition film transfer as well as a new Surround Sound mix created from the 16-track master tapes, plus a multitude of extras, including movie-length commentary by Alice himself. “The film that out-grosses them all”—as it was originally billed—is back, looking and sounding better than ever.

Tracklist

1.Hello, Hooray
2.Billion Dollar Babies
3.Elected
4.I’m Eighteen
5.Raped And Freezin’
6.No More Mr. Nice Guy
7.My Stars
8.Unfinished Sweet
9.Sick Things
10.Dead Babies
11.I Love The Dead
12.School’s Out
13.Under My Wheels
14.And a studio performance of The Lady Is A Tramp

Bonus
Audio Commentary by Alice Cooper
Anamorphic Widescreen & 5.1 Surround Sound
“Play concert only” viewing option
Unfinished Sweet (Uncensored Edit) (480p, 3:57)
Original Theatrical Trailer (480p, 3:15)
Poster Gallery with Original Promotional Material (480p, 2:57)
Deleted Scene and Outtakes (480p, 2:00)
Band Biographies
DVD Easter Eggs

picpic

DISC INFO:

Disc Title:     GTSYA_ALICE_COOPER
Disc Size:      23 294 333 824 bytes
Protection:     AACS
BD-Java:        No
BDInfo:         0.5.6

PLAYLIST REPORT:

Name:                   00020.MPLS
Length:                 0:59:35 (h:m:s)
Size:                   13 061 425 152 bytes
Total Bitrate:          29,23 Mbps

VIDEO:

Codec                   Bitrate             Description
-----                   -------             -----------
VC-1 Video              17925 kbps          1080p / 23,976 fps / 16:9 / Advanced Profile 3

AUDIO:

Codec                           Language        Bitrate         Description
-----                           --------        -------         -----------
LPCM Audio                      English         2304 kbps       2.0 / 48 kHz / 2304 kbps / 24-bit
DTS-HD Master Audio             English         5074 kbps       5.1 / 48 kHz / 5074 kbps / 24-bit (DTS Core: 5.1 / 48 kHz / 1509 kbps / 24-bit)
LPCM Audio                      English         2304 kbps       2.0 / 48 kHz / 2304 kbps / 24-bit

FILES:

Name            Time In         Length          Size            Total Bitrate
----            -------         ------          ----            -------------
00033.M2TS      0:00:00.000     0:06:31.474     1 439 299 584   29 413
00035.M2TS      0:06:31.474     0:06:49.492     1 493 047 296   29 169
00037.M2TS      0:13:20.966     0:18:39.201     4 084 764 672   29 198
00039.M2TS      0:32:00.168     0:10:53.194     2 385 629 184   29 218
00041.M2TS      0:42:53.362     0:01:43.853     379 914 240     29 265
00043.M2TS      0:44:37.216     0:01:28.296     320 821 248     29 068
00045.M2TS      0:46:05.512     0:02:28.273     543 172 608     29 307
00047.M2TS      0:48:33.785     0:11:01.410     2 414 776 320   29 208

Blu-ray Disc:

https://nitro.download/view/E345044BC0293EA/GTSYA_ALICE_COOPER.part01.rar
https://nitro.download/view/1F7DEE39F0E78D6/GTSYA_ALICE_COOPER.part02.rar
https://nitro.download/view/D53F80609F29E63/GTSYA_ALICE_COOPER.part03.rar
https://nitro.download/view/F0A514F335323F6/GTSYA_ALICE_COOPER.part04.rar
https://nitro.download/view/7E5BD846D64E0CE/GTSYA_ALICE_COOPER.part05.rar
https://nitro.download/view/A6BF59FC4402325/GTSYA_ALICE_COOPER.part06.rar
https://nitro.download/view/E6CECC4BBC50279/GTSYA_ALICE_COOPER.part07.rar
https://nitro.download/view/6A3D589E99416BF/GTSYA_ALICE_COOPER.part08.rar
https://nitro.download/view/87C75B1304A9F11/GTSYA_ALICE_COOPER.part09.rar
https://nitro.download/view/2308023328C4A4A/GTSYA_ALICE_COOPER.part10.rar
https://nitro.download/view/03455989D802C02/GTSYA_ALICE_COOPER.part11.rar
https://nitro.download/view/6939F0A71C9D9AD/GTSYA_ALICE_COOPER.part12.rar
https://nitro.download/view/95173DD7F17B944/GTSYA_ALICE_COOPER.part13.rar
https://nitro.download/view/F37D284BAF6E6F6/GTSYA_ALICE_COOPER.part14.rar
https://nitro.download/view/10D7FB43D00616A/GTSYA_ALICE_COOPER.part15.rar
https://nitro.download/view/7D2B192DC7F8296/GTSYA_ALICE_COOPER.part16.rar

or

https://subyshare.com/gnh2ioojcaru/GTSYA_ALICE_COOPER.part01.rar.html
https://subyshare.com/00ch5yl1qr3e/GTSYA_ALICE_COOPER.part02.rar.html
https://subyshare.com/qcclu3t6363v/GTSYA_ALICE_COOPER.part03.rar.html
https://subyshare.com/opxx6k4ukew6/GTSYA_ALICE_COOPER.part04.rar.html
https://subyshare.com/9mlh0axipxqq/GTSYA_ALICE_COOPER.part05.rar.html
https://subyshare.com/8f1j1af562vt/GTSYA_ALICE_COOPER.part06.rar.html
https://subyshare.com/78tevz7yv14o/GTSYA_ALICE_COOPER.part07.rar.html
https://subyshare.com/bdedehd73rgv/GTSYA_ALICE_COOPER.part08.rar.html
https://subyshare.com/em7foqe5h8qm/GTSYA_ALICE_COOPER.part09.rar.html
https://subyshare.com/1o40wparx3n7/GTSYA_ALICE_COOPER.part10.rar.html
https://subyshare.com/at103qbf7sy9/GTSYA_ALICE_COOPER.part11.rar.html
https://subyshare.com/7hmhd3zahq2k/GTSYA_ALICE_COOPER.part12.rar.html
https://subyshare.com/brbs6xmg3k66/GTSYA_ALICE_COOPER.part13.rar.html
https://subyshare.com/a2di0rktsui9/GTSYA_ALICE_COOPER.part14.rar.html
https://subyshare.com/xqzjglhwcmjp/GTSYA_ALICE_COOPER.part15.rar.html
https://subyshare.com/i1i5rvmyi742/GTSYA_ALICE_COOPER.part16.rar.html

BDRip 720p

https://nitro.download/view/619EBA58420E02F/AliceC00perG00dT0SeeY0uAgainLive1973BDRip.720p.PCM.part1.rar
https://nitro.download/view/909969B8AA75C42/AliceC00perG00dT0SeeY0uAgainLive1973BDRip.720p.PCM.part2.rar
https://nitro.download/view/77A3E964380B153/AliceC00perG00dT0SeeY0uAgainLive1973BDRip.720p.PCM.part3.rar
https://nitro.download/view/EEEEC56ADFD9193/AliceC00perG00dT0SeeY0uAgainLive1973BDRip.720p.PCM.part4.rar
https://nitro.download/view/A0058D5C57F9945/AliceC00perG00dT0SeeY0uAgainLive1973BDRip.720p.PCM.part5.rar

or

https://subyshare.com/xv6tu7p6bpgu/AliceC00perG00dT0SeeY0uAgainLive1973BDRip.720p.PCM.part1.rar.html
https://subyshare.com/0zw3ciqw6syq/AliceC00perG00dT0SeeY0uAgainLive1973BDRip.720p.PCM.part2.rar.html
https://subyshare.com/vdl24a2rufpf/AliceC00perG00dT0SeeY0uAgainLive1973BDRip.720p.PCM.part3.rar.html
https://subyshare.com/5l9xdeuzm7a8/AliceC00perG00dT0SeeY0uAgainLive1973BDRip.720p.PCM.part4.rar.html
https://subyshare.com/9re8u0mvgz1x/AliceC00perG00dT0SeeY0uAgainLive1973BDRip.720p.PCM.part5.rar.html