Ariana Grande – 7 Rings (2019) [PCM ProRes 1080p]

Title: Ariana Grande: 7 Rings
Year: 2019
Duration: 00:03:09
Genre: Pop
Directed by: Hannah Lux Davis
Starring: Ariana Grande / Courtney Chipolone / Alexa Luria / Victoria Monét / Njomza
IMDB Rating: 6.4
IMDB URL: http://www.imdb.com/title/tt9624514/

Quality: Master
Video resolution / scan: 1080p
Container: MOV
Video Codec: Apple ProRes
Audio Codec: PCM
Video: APCH 1920×1080 23.976fps 167 Mb / s
Audio: PCM 48000Hz stereo 2304kbps
Size: 3,73 GB

Ariana Grande is platinum-queen in her music video for “7 Rings”, proving that her reign ain’t ending anytime soon.

General
Complete name                  : E:\Ariana Grande - 7 Rings 2019.mov
Format                         : MPEG-4
Format profile                 : QuickTime
Codec ID                       : qt   2005.03 (qt  )
File size                      : 3.73 GiB
Duration                       : 3 min 9 s
Overall bit rate mode          : Variable
Overall bit rate               : 169 Mb/s
Encoded date                   : UTC 2019-01-18 05:25:18
Tagged date                    : UTC 2019-01-18 05:28:09
Writing library                : Apple QuickTime

Video
ID                             : 1
Format                         : ProRes
Format version                 : Version 0
Format profile                 : 422 HQ
Codec ID                       : apch
Duration                       : 3 min 9 s
Bit rate mode                  : Variable
Bit rate                       : 167 Mb/s
Width                          : 1 920 pixels
Height                         : 1 080 pixels
Display aspect ratio           : 16:9
Frame rate mode                : Constant
Frame rate                     : 23.976 (24000/1001) FPS
Color space                    : YUV
Chroma subsampling             : 4:2:2
Scan type                      : Progressive
Bits/(Pixel*Frame)             : 3.360
Stream size                    : 3.68 GiB (99%)
Writing library                : arh0
Language                       : English
Encoded date                   : UTC 2019-01-18 05:25:19
Tagged date                    : UTC 2019-01-18 05:28:09
Color primaries                : BT.709
Transfer characteristics       : BT.709
Matrix coefficients            : BT.709

Audio
ID                             : 2
Format                         : PCM
Format settings                : Little / Signed
Codec ID                       : in24
Duration                       : 3 min 9 s
Bit rate mode                  : Constant
Bit rate                       : 2 304 kb/s
Channel(s)                     : 2 channels
Channel layout                 : L R
Sampling rate                  : 48.0 kHz
Bit depth                      : 24 bits
Stream size                    : 52.0 MiB (1%)
Language                       : English
Encoded date                   : UTC 2019-01-18 05:25:19
Tagged date                    : UTC 2019-01-18 05:28:11

Screenshots

pic pic pic pic pic pic pic pic pic pic pic pic

Download

https://nitroflare.com/view/FC50AC611F43285/mvabc.xyz_ArianaGrande7Rings2019.part1.rar
https://nitroflare.com/view/DDBA97030710582/mvabc.xyz_ArianaGrande7Rings2019.part2.rar
https://nitroflare.com/view/DA94610F860F0CE/mvabc.xyz_ArianaGrande7Rings2019.part3.rar

or

https://subyshare.com/00wljhatwgcc/mvabc.xyz_ArianaGrande7Rings2019.part1.rar.html
https://subyshare.com/g5ucddymp5m1/mvabc.xyz_ArianaGrande7Rings2019.part2.rar.html
https://subyshare.com/z1zvuem4esuh/mvabc.xyz_ArianaGrande7Rings2019.part3.rar.html