Ariana Grande – Breathin (2018) [PCM ProRes 1080p]

Title: Ariana Grande: Breathin
Year: 2018
Length: 00:03:27
Genre: Pop
Directed by: Hannah Lux Davis
Starring: Ariana Grande
IMDB Rating: 6.9
IMDB URL: http://www.imdb.com/title/tt9256114/

Quality: Master
Video resolution / scan: 1080p
Container: MOV
Video Codec: Apple ProRes
Audio Codec: PCM
Video: APCH 1920×1080 23.976fps 170 Mb / s
Audio: PCM 48000Hz stereo 2304kbps
Size: 4,15 GB

Official music video for “Breathin” by Ariana Grande.

General
Complete name                  : J:\Ariana Grande - Breathin 2018.mov
Format                         : MPEG-4
Format profile                 : QuickTime
Codec ID                       : qt   2005.03 (qt  )
File size                      : 4.15 GiB
Duration                       : 3 min 27 s
Overall bit rate mode          : Variable
Overall bit rate               : 172 Mb/s
Encoded date                   : UTC 2018-11-07 22:27:43
Tagged date                    : UTC 2018-11-07 22:35:56
Writing library                : Apple QuickTime

Video
ID                             : 1
Format                         : ProRes
Format version                 : Version 0
Format profile                 : 422 HQ
Codec ID                       : apch
Duration                       : 3 min 27 s
Bit rate mode                  : Variable
Bit rate                       : 170 Mb/s
Width                          : 1 920 pixels
Height                         : 1 080 pixels
Display aspect ratio           : 16:9
Frame rate mode                : Constant
Frame rate                     : 23.976 (24000/1001) FPS
Color space                    : YUV
Chroma subsampling             : 4:2:2
Scan type                      : Progressive
Bits/(Pixel*Frame)             : 3.418
Stream size                    : 4.10 GiB (99%)
Writing library                : arh0
Language                       : English
Encoded date                   : UTC 2018-11-07 22:27:55
Tagged date                    : UTC 2018-11-07 22:35:56
Color primaries                : BT.709
Transfer characteristics       : BT.709
Matrix coefficients            : BT.709

Audio
ID                             : 2
Format                         : PCM
Format settings                : Little / Signed
Codec ID                       : in24
Duration                       : 3 min 27 s
Bit rate mode                  : Constant
Bit rate                       : 2 304 kb/s
Channel(s)                     : 2 channels
Channel layout                 : L R
Sampling rate                  : 48.0 kHz
Bit depth                      : 24 bits
Stream size                    : 56.9 MiB (1%)
Language                       : English
Encoded date                   : UTC 2018-11-07 22:27:55
Tagged date                    : UTC 2018-11-07 22:35:57

Screenshots

 

pic pic pic pic pic pic pic pic pic pic pic pic

Download

https://nitroflare.com/view/DC29233D7B97405/mvabc.xyz_ArianaGrandeBreathin2018.part1.rar
https://nitroflare.com/view/9E0D663167CC52C/mvabc.xyz_ArianaGrandeBreathin2018.part2.rar
https://nitroflare.com/view/F9716B1A32E0A9F/mvabc.xyz_ArianaGrandeBreathin2018.part3.rar

or

https://subyshare.com/bqen8d624x06/mvabc.xyz_ArianaGrandeBreathin2018.part1.rar.html
https://subyshare.com/iefboj9sqzsx/mvabc.xyz_ArianaGrandeBreathin2018.part2.rar.html
https://subyshare.com/8z7x38g6lkaq/mvabc.xyz_ArianaGrandeBreathin2018.part3.rar.html