Ariana Grande – Focus (2015) [PCM ProRes 1080p]

Title: Ariana Grande: Focus
Year: 2015
Duration: 00:03:50
Genre: Pop
Directed by: Hannah Lux Davis
Starring: Ariana Grande
IMDB Rating: 6.5
IMDB URL: http://www.imdb.com/title/tt5572264/

Quality: Master
Video resolution / scan: 1080p
Container: MOV
Video Codec: APCH
Audio Codec: PCM
Video: Apple ProRes 422 HQ, 1920x1080p, 162 Mbps, 23.976 fps
Audio: LPCM, 2304 kbps, 48000 Hz, stereo (2 channels)
Size: 4,41 GB

The video begins with video flashes of Grande in a two-piece outfit and platinum hair as shown in the single art cover. She makes several different poses while standing/dancing inside of a circular shape. The circle is meant to look like a camera lens and is one way of using the song title, “Focus”. As the video progresses, Grande and numerous female background dancers perform multiple choreographed numbers, including the big bridge choreographed number halfway into the track. For this number, they wear matching outfits that are mostly black with white stars. The dancers have a different style of outfit, wearing starry pants. While still matching, Ariana’s outfit is a starry bodysuit. The song progresses on and ends with Grande striking a final pose as the track ends.

General
Complete name                  : C:\Downloads\Ariana Grande - Focus (LPCM-Master-ProRes-1080p)_USUV71503192.mov
Format                         : MPEG-4
Format profile                 : QuickTime
Codec ID                       : qt   2005.03 (qt  )
File size                      : 4.41 GiB
Duration                       : 3 min 50 s
Overall bit rate mode          : Variable
Overall bit rate               : 164 Mb/s
Encoded date                   : UTC 2017-02-06 10:44:48
Tagged date                    : UTC 2017-02-06 10:51:40
Writing library                : Apple QuickTime

Video
ID                             : 1
Format                         : ProRes
Format version                 : Version 0
Format profile                 : 422 HQ
Codec ID                       : apch
Duration                       : 3 min 50 s
Bit rate mode                  : Variable
Bit rate                       : 162 Mb/s
Width                          : 1 920 pixels
Height                         : 1 080 pixels
Display aspect ratio           : 16:9
Frame rate mode                : Constant
Frame rate                     : 23.976 (24000/1001) FPS
Color space                    : YUV
Chroma subsampling             : 4:2:2
Scan type                      : Progressive
Bits/(Pixel*Frame)             : 3.261
Stream size                    : 4.35 GiB (99%)
Writing library                : arh0
Language                       : English
Encoded date                   : UTC 2017-02-06 10:44:48
Tagged date                    : UTC 2017-02-06 10:51:40
Color primaries                : BT.709
Transfer characteristics       : BT.709
Matrix coefficients            : BT.709

Audio
ID                             : 2
Format                         : PCM
Format settings                : Little / Signed
Codec ID                       : in24
Duration                       : 3 min 50 s
Bit rate mode                  : Constant
Bit rate                       : 2 304 kb/s
Channel(s)                     : 2 channels
Channel layout                 : L R
Sampling rate                  : 48.0 kHz
Bit depth                      : 24 bits
Stream size                    : 63.3 MiB (1%)
Language                       : English
Encoded date                   : UTC 2017-02-06 10:44:48
Tagged date                    : UTC 2017-02-06 10:51:42

Screenshots

 

pic pic pic pic pic pic pic pic pic

Download

https://nitroflare.com/view/6614E5F7878AD07/mvabc.xyz_ArianaGrandeF0cus.part1.rar
https://nitroflare.com/view/6F9CF4F64F4C435/mvabc.xyz_ArianaGrandeF0cus.part2.rar
https://nitroflare.com/view/3445D99F471013B/mvabc.xyz_ArianaGrandeF0cus.part3.rar
https://nitroflare.com/view/075A4E1ADB81192/mvabc.xyz_ArianaGrandeF0cus.part4.rar

or

https://subyshare.com/i9pebwg75kku/mvabc.xyz_ArianaGrandeF0cus.part1.rar.html
https://subyshare.com/4g3w32jki2qa/mvabc.xyz_ArianaGrandeF0cus.part2.rar.html
https://subyshare.com/f8pjvvbdsehb/mvabc.xyz_ArianaGrandeF0cus.part3.rar.html
https://subyshare.com/26ypvqyhr3po/mvabc.xyz_ArianaGrandeF0cus.part4.rar.html