Ariana Grande – God Is A Woman (2018) [PCM ProRes 1080p]

Title: Ariana Grande: God is a Woman
Year: 2018
Duration: 00:03:52
Genre: Pop
Directed by: Dave Meyers
Starring: Ariana Grande / Lakiesha Holley / Madonna / Benjamin Poe / Heavenly Reyna
IMDB Rating: 7.1
IMDB URL: http://www.imdb.com/title/tt8701114/

Quality: Master
Video resolution / scan: 1080p
Container: MOV
Video Codec: Apple ProRes
Audio Codec: PCM
Video: APCH 1920×1080 23.976fps 17 8993kbps
Audio: PCM 48000Hz stereo 2304kbps
Size: 4,89 GB

God is a Woman is a music video for the song of the same name by Ariana Grande.

General
Complete name                  : E:\Клипы mov\Ariana Grande - God Is A Woman.mov
Format                         : MPEG-4
Format profile                 : QuickTime
Codec ID                       : qt   2005.03 (qt  )
File size                      : 4.89 GiB
Duration                       : 3 min 51 s
Overall bit rate mode          : Variable
Overall bit rate               : 181 Mb/s
Encoded date                   : UTC 2018-10-01 15:05:06
Tagged date                    : UTC 2018-10-01 15:13:37
Writing library                : Apple QuickTime

Video
ID                             : 1
Format                         : ProRes
Format version                 : Version 0
Format profile                 : 422 HQ
Codec ID                       : apch
Duration                       : 3 min 51 s
Bit rate mode                  : Variable
Bit rate                       : 179 Mb/s
Width                          : 1 920 pixels
Height                         : 1 080 pixels
Display aspect ratio           : 16:9
Frame rate mode                : Constant
Frame rate                     : 23.976 (24000/1001) FPS
Color space                    : YUV
Chroma subsampling             : 4:2:2
Scan type                      : Progressive
Bits/(Pixel*Frame)             : 3.600
Stream size                    : 4.82 GiB (99%)
Writing library                : arh0
Language                       : English
Encoded date                   : UTC 2018-10-01 15:09:06
Tagged date                    : UTC 2018-10-01 15:13:37
Color primaries                : BT.709
Transfer characteristics       : BT.709
Matrix coefficients            : BT.709

Audio
ID                             : 2
Format                         : PCM
Format settings                : Little / Signed
Codec ID                       : in24
Duration                       : 3 min 51 s
Bit rate mode                  : Constant
Bit rate                       : 2 304 kb/s
Channel(s)                     : 2 channels
Channel layout                 : L R
Sampling rate                  : 48.0 kHz
Bit depth                      : 24 bits
Stream size                    : 63.6 MiB (1%)
Language                       : English
Encoded date                   : UTC 2018-10-01 15:09:06
Tagged date                    : UTC 2018-10-01 15:13:37

Screenshots

pic pic pic pic pic pic pic pic pic pic pic pic

Download

https://nitroflare.com/view/E519D7E6FF642AD/mvabc.xyz_ArianaGrandeG0dIsAW0man.part1.rar
https://nitroflare.com/view/9BC93B0285F582C/mvabc.xyz_ArianaGrandeG0dIsAW0man.part2.rar
https://nitroflare.com/view/2AA83EA8666A762/mvabc.xyz_ArianaGrandeG0dIsAW0man.part3.rar
https://nitroflare.com/view/FE94DF1B7A2E787/mvabc.xyz_ArianaGrandeG0dIsAW0man.part4.rar

or

https://subyshare.com/2a5f1bu2nu2e/mvabc.xyz_ArianaGrandeG0dIsAW0man.part1.rar.html
https://subyshare.com/ctx2a38ddpuy/mvabc.xyz_ArianaGrandeG0dIsAW0man.part2.rar.html
https://subyshare.com/qpjtfyjjj99g/mvabc.xyz_ArianaGrandeG0dIsAW0man.part3.rar.html
https://subyshare.com/ia442ujjmmw3/mvabc.xyz_ArianaGrandeG0dIsAW0man.part4.rar.html