Ariana Grande – No Tears Left To Cry (2018) [PCM ProRes 1080p]

Title: Ariana Grande: No Tears Left to Cry
Year: 2018
Duration: 00:05:52
Genre: Pop
Directed by: Dave Meyers
Starring: Ariana Grande / Sadoc Vazkez
IMDB Rating: 7.8
IMDB URL: http://www.imdb.com/title/tt8311142/

Quality: Master
Video resolution / scan: 1080p
Container: MOV
Video Codec: Apple ProRes
Audio Codec: PCM
Video: APCH 1920×1080 24fps 176 Mb / s
Audio: PCM 48000Hz stereo 2304kbps
Size: 4,74 GB

In the official music video for her song “No Tears Left to Cry”, Ariana Grande performs while walking on the ceiling and the walls.

General
Complete name                  : E:\Клипы mov\Ariana Grande - No Tears Left To Cry.mov
Format                         : MPEG-4
Format profile                 : QuickTime
Codec ID                       : qt   2005.03 (qt  )
File size                      : 4.74 GiB
Duration                       : 3 min 48 s
Overall bit rate mode          : Variable
Overall bit rate               : 178 Mb/s
Encoded date                   : UTC 2018-04-20 13:47:01
Tagged date                    : UTC 2018-04-20 13:54:11
Writing library                : Apple QuickTime

Video
ID                             : 1
Format                         : ProRes
Format version                 : Version 0
Format profile                 : 422 HQ
Codec ID                       : apch
Duration                       : 3 min 48 s
Bit rate mode                  : Variable
Bit rate                       : 176 Mb/s
Width                          : 1 920 pixels
Height                         : 1 080 pixels
Display aspect ratio           : 16:9
Frame rate mode                : Constant
Frame rate                     : 24.000 FPS
Color space                    : YUV
Chroma subsampling             : 4:2:2
Scan type                      : Progressive
Bits/(Pixel*Frame)             : 3.540
Stream size                    : 4.68 GiB (99%)
Writing library                : arh0
Language                       : English
Encoded date                   : UTC 2018-04-20 13:50:43
Tagged date                    : UTC 2018-04-20 13:54:11
Color primaries                : BT.709
Transfer characteristics       : BT.709
Matrix coefficients            : BT.709

Audio
ID                             : 2
Format                         : PCM
Format settings                : Little / Signed
Codec ID                       : in24
Duration                       : 3 min 48 s
Bit rate mode                  : Constant
Bit rate                       : 2 304 kb/s
Channel(s)                     : 2 channels
Channel layout                 : L R
Sampling rate                  : 48.0 kHz
Bit depth                      : 24 bits
Stream size                    : 62.6 MiB (1%)
Language                       : English
Encoded date                   : UTC 2018-04-20 13:50:43
Tagged date                    : UTC 2018-04-20 13:54:11

Screenshots

pic pic pic pic pic pic pic pic pic pic pic pic

Download

https://nitroflare.com/view/E4118634738F179/mvabc.xyz_ArianaGrandeN0TearsLeftT0Cry.part1.rar
https://nitroflare.com/view/DF6448CF49AD9C4/mvabc.xyz_ArianaGrandeN0TearsLeftT0Cry.part2.rar
https://nitroflare.com/view/B830C85C8826562/mvabc.xyz_ArianaGrandeN0TearsLeftT0Cry.part3.rar
https://nitroflare.com/view/537DE2E71369ED5/mvabc.xyz_ArianaGrandeN0TearsLeftT0Cry.part4.rar

or

https://subyshare.com/apc4jc5phnb7/mvabc.xyz_ArianaGrandeN0TearsLeftT0Cry.part1.rar.html
https://subyshare.com/1zyk9sgqkphz/mvabc.xyz_ArianaGrandeN0TearsLeftT0Cry.part2.rar.html
https://subyshare.com/yeazeafsdq91/mvabc.xyz_ArianaGrandeN0TearsLeftT0Cry.part3.rar.html
https://subyshare.com/1do41lz63ax1/mvabc.xyz_ArianaGrandeN0TearsLeftT0Cry.part4.rar.html