Ariana Grande – Santa Tell Me (2014) [PCM ProRes 1080p]

Title: Ariana Grande: Santa Tell Me
Year: 2014
Duration: 00:05:33
Genre: Pop
Directed by: Jones Crow / Alfredo Flores
Starring: Ariana Grande
IMDB Rating: 5.6
IMDB URL: http://www.imdb.com/title/tt6910332/

Quality: Master
Video resolution / scan: 1080p
Container: MOV
Video Codec: Apple ProRes
Audio Codec: PCM
Video: APCH 1920×1080 23.976fps 17 5277kbps
Audio: PCM 48000Hz stereo 2304kbps
Size: 6,89 GB

The official video was released on December 12, 2014. It was directed by Chris Marrs Piliero. The video features Grande with her friends dancing, laughing and giving gifts around her house along with a two-minute outtake section at the end. It surpassed 121 million views on July 25, 2017, making it Grande’s fourteenth Vevo-certified music video after “Let Me Love You”.

General
Complete name                  : E:\Ariana Grande - Santa Tell Me.mov
Format                         : MPEG-4
Format profile                 : QuickTime
Codec ID                       : qt   2005.03 (qt  )
File size                      : 6.89 GiB
Duration                       : 5 min 33 s
Overall bit rate mode          : Variable
Overall bit rate               : 178 Mb/s
Encoded date                   : UTC 2016-12-06 11:20:18
Tagged date                    : UTC 2016-12-06 11:34:33
Writing library                : Apple QuickTime

Video
ID                             : 1
Format                         : ProRes
Format version                 : Version 0
Format profile                 : 422 HQ
Codec ID                       : apch
Duration                       : 5 min 33 s
Bit rate mode                  : Variable
Bit rate                       : 175 Mb/s
Width                          : 1 920 pixels
Height                         : 1 080 pixels
Display aspect ratio           : 16:9
Frame rate mode                : Constant
Frame rate                     : 23.976 (24000/1001) FPS
Color space                    : YUV
Chroma subsampling             : 4:2:2
Scan type                      : Progressive
Bits/(Pixel*Frame)             : 3.526
Stream size                    : 6.81 GiB (99%)
Writing library                : arh0
Language                       : English
Encoded date                   : UTC 2016-12-06 11:28:10
Tagged date                    : UTC 2016-12-06 11:34:33
Color primaries                : BT.709
Transfer characteristics       : BT.709
Matrix coefficients            : BT.709

Audio
ID                             : 2
Format                         : PCM
Format settings                : Little / Signed
Codec ID                       : in24
Duration                       : 5 min 33 s
Bit rate mode                  : Constant
Bit rate                       : 2 304 kb/s
Channel(s)                     : 2 channels
Channel layout                 : L R
Sampling rate                  : 48.0 kHz
Bit depth                      : 24 bits
Stream size                    : 91.6 MiB (1%)
Language                       : English
Encoded date                   : UTC 2016-12-06 11:28:11
Tagged date                    : UTC 2016-12-06 11:34:33

Screenshots

pic pic pic pic pic pic pic pic

Download

https://nitroflare.com/view/1E8AAEE4570CD82/mvabc.xyz_ArianaGrandeSantaTellMe.part1.rar
https://nitroflare.com/view/BBBE695E4E48EA7/mvabc.xyz_ArianaGrandeSantaTellMe.part2.rar
https://nitroflare.com/view/C16FCFAF1CC86FC/mvabc.xyz_ArianaGrandeSantaTellMe.part3.rar
https://nitroflare.com/view/F0D7004E260301F/mvabc.xyz_ArianaGrandeSantaTellMe.part4.rar
https://nitroflare.com/view/EBF92F05E84A0BA/mvabc.xyz_ArianaGrandeSantaTellMe.part5.rar

or

https://subyshare.com/stja9lbcaz1i/mvabc.xyz_ArianaGrandeSantaTellMe.part1.rar.html
https://subyshare.com/14r3opxe8vex/mvabc.xyz_ArianaGrandeSantaTellMe.part2.rar.html
https://subyshare.com/ml38dsy3g9zn/mvabc.xyz_ArianaGrandeSantaTellMe.part3.rar.html
https://subyshare.com/mynpc69d22bx/mvabc.xyz_ArianaGrandeSantaTellMe.part4.rar.html
https://subyshare.com/6rmkcxi8mm8v/mvabc.xyz_ArianaGrandeSantaTellMe.part5.rar.html