Bruce Springsteen and The E Street Band – Hammersmith Odeon, London 1975 (2016) 1080p AMZN WEB-DL DDP5.1 H.264-SiGMA

Genre: Rock, Folk Rock
Duration: 02:09:34
Release Date: 2016

Quality: Web-DL
Container: MKV
Video Codec: H.264
Audio codec: AC3
Video: AVC, 1920×1080 (16: 9), 29.970 fps, 10.6 Mb / s
Audio: E-AC-3, 48.0 kHz, 6 ch, 640 kb / s

Setlist

1 Thunder Road
2 Tenth Avenue Freeze-Out
3 Spirit in the Night
4 Lost in the Flood
5 She’s the One
6 Born to Run
7 The E Street Shuffle
8 It’s Hard to Be a Saint in the City
9 Backstreets
10 Kitty’s Back
11 Jungleland
12 Rosalita (Come Out Tonight)
13 4th of July, Asbury Park (Sandy)
14 Detroit Medley
15 For You
16 Quarter to Three

pic pic pic pic
pic pic pic pic

General
Unique ID                   : 189137896124074787908131414045290741646 (0x8E4AA23F2B271A176030521CC69D3F8E)
Complete name               : T:\web-dl\Bruce.Springsteen.and.The.E.Street.Band.Hammersmith.75.1975.1080p.AMZN.WEB-DL.DDP5.1.H.264-SiGMA.mkv
Format                      : Matroska
Format version              : Version 4
File size                   : 10.1 GiB
Duration                    : 2 h 9 min
Overall bit rate            : 11.2 Mb/s
Encoded date                : UTC 2019-01-25 10:16:40
Writing application         : mkvmerge v30.1.0 ('Forever And More') 64-bit
Writing library             : libebml v1.3.6 + libmatroska v1.4.9

Video
ID                          : 1
Format                      : AVC
Format/Info                 : Advanced Video Codec
Format profile              : High@L4
Format settings             : CABAC / 4 Ref Frames
Format settings, CABAC      : Yes
Format settings, Reference  : 4 frames
Codec ID                    : V_MPEG4/ISO/AVC
Duration                    : 2 h 9 min
Bit rate                    : 10.6 Mb/s
Width                       : 1 920 pixels
Height                      : 1 080 pixels
Display aspect ratio        : 16:9
Frame rate mode             : Constant
Frame rate                  : 29.970 (30000/1001) FPS
Color space                 : YUV
Chroma subsampling          : 4:2:0
Bit depth                   : 8 bits
Scan type                   : Progressive
Bits/(Pixel*Frame)          : 0.170
Stream size                 : 9.55 GiB (94%)
Default                     : Yes
Forced                      : No
Color range                 : Limited
Color primaries             : BT.709
Transfer characteristics    : BT.709
Matrix coefficients         : BT.709

Audio
ID                          : 2
Format                      : E-AC-3
Format/Info                 : Enhanced AC-3
Commercial name             : Dolby Digital Plus
Codec ID                    : A_EAC3
Duration                    : 2 h 9 min
Bit rate mode               : Constant
Bit rate                    : 640 kb/s
Channel(s)                  : 6 channels
Channel layout              : L R C LFE Ls Rs
Sampling rate               : 48.0 kHz
Frame rate                  : 31.250 FPS (1536 SPF)
Compression mode            : Lossy
Stream size                 : 593 MiB (6%)
Language                    : English
Service kind                : Complete Main
Default                     : Yes
Forced                      : No

Text
ID                          : 3
Format                      : UTF-8
Codec ID                    : S_TEXT/UTF8
Codec ID/Info               : UTF-8 Plain Text
Duration                    : 2 h 9 min
Bit rate                    : 46 b/s
Count of elements           : 1620
Stream size                 : 44.4 KiB (0%)
Title                       : English (SDH)
Language                    : English
Default                     : No
Forced                      : No

Download:

https://nitro.download/view/2479912A790E568/Bruce.Springsteen.and.The.E.Street.Band.Hammersmith.75.1975.1080p.AMZN.WEBDL.DDP5.1.H.264SiGMA.part1.rar
https://nitro.download/view/E9BFACA0E2FCFB7/Bruce.Springsteen.and.The.E.Street.Band.Hammersmith.75.1975.1080p.AMZN.WEBDL.DDP5.1.H.264SiGMA.part2.rar
https://nitro.download/view/3DBE47CF109020C/Bruce.Springsteen.and.The.E.Street.Band.Hammersmith.75.1975.1080p.AMZN.WEBDL.DDP5.1.H.264SiGMA.part3.rar
https://nitro.download/view/B07F150CABF03AC/Bruce.Springsteen.and.The.E.Street.Band.Hammersmith.75.1975.1080p.AMZN.WEBDL.DDP5.1.H.264SiGMA.part4.rar
https://nitro.download/view/6E55F56BA581CEF/Bruce.Springsteen.and.The.E.Street.Band.Hammersmith.75.1975.1080p.AMZN.WEBDL.DDP5.1.H.264SiGMA.part5.rar
https://nitro.download/view/FE0CCEE764F25E3/Bruce.Springsteen.and.The.E.Street.Band.Hammersmith.75.1975.1080p.AMZN.WEBDL.DDP5.1.H.264SiGMA.part6.rar
https://nitro.download/view/156AD5B6E72232F/Bruce.Springsteen.and.The.E.Street.Band.Hammersmith.75.1975.1080p.AMZN.WEBDL.DDP5.1.H.264SiGMA.part7.rar
https://nitro.download/view/B3717EB8B21F7A3/Bruce.Springsteen.and.The.E.Street.Band.Hammersmith.75.1975.1080p.AMZN.WEBDL.DDP5.1.H.264SiGMA.part8.rar

or

https://subyshare.com/4gyx3hgrg079/Bruce.Springsteen.and.The.E.Street.Band.Hammersmith.75.1975.1080p.AMZN.WEBDL.DDP5.1.H.264SiGMA.part1.rar.html
https://subyshare.com/k3z668redjv5/Bruce.Springsteen.and.The.E.Street.Band.Hammersmith.75.1975.1080p.AMZN.WEBDL.DDP5.1.H.264SiGMA.part2.rar.html
https://subyshare.com/fb48r3pybrwk/Bruce.Springsteen.and.The.E.Street.Band.Hammersmith.75.1975.1080p.AMZN.WEBDL.DDP5.1.H.264SiGMA.part3.rar.html
https://subyshare.com/j0eg3s20a301/Bruce.Springsteen.and.The.E.Street.Band.Hammersmith.75.1975.1080p.AMZN.WEBDL.DDP5.1.H.264SiGMA.part4.rar.html
https://subyshare.com/zp8rnlg1f2jr/Bruce.Springsteen.and.The.E.Street.Band.Hammersmith.75.1975.1080p.AMZN.WEBDL.DDP5.1.H.264SiGMA.part5.rar.html
https://subyshare.com/80i02rl1csne/Bruce.Springsteen.and.The.E.Street.Band.Hammersmith.75.1975.1080p.AMZN.WEBDL.DDP5.1.H.264SiGMA.part6.rar.html
https://subyshare.com/5qxyao9rf7ef/Bruce.Springsteen.and.The.E.Street.Band.Hammersmith.75.1975.1080p.AMZN.WEBDL.DDP5.1.H.264SiGMA.part7.rar.html
https://subyshare.com/rvrqfr0o8y04/Bruce.Springsteen.and.The.E.Street.Band.Hammersmith.75.1975.1080p.AMZN.WEBDL.DDP5.1.H.264SiGMA.part8.rar.html