Bruce Springsteen and The E Street Band – Live in Barcelona 2002 AMZN WEB-DL 1080p AVC DDP 5.1 – CCT

Title: Bruce Springsteen and The E Street Band – Live in Barcelona
Release Date: 2002
Genre: Rock

Production/Label: n/a
Duration: 02:56:51
Quality: Web-DL
Container: MKV
Video codec: H.264
Audio codec: DTS
Video: AVC, 1920×1080 (16: 9), 29.970 fps, 12.2 Mb / s
Audio: E-AC-3, 48.0 kHz, 6 ch, 640 kb / s
Size: 15.88 GB

On October 16, 2002, two months into his world tour in support of The Rising, Bruce Springsteen & the E Street Band took the stage of the Palau Sant Jordi in Barcelona, Spain, to create the kind of soul-stirring concert experience that transforms Springsteen neophytes and fans alike into true believers.

Tracklist

Program Start
The Rising
Lonesome Day
Prove It All Night
Darkness On The Edge Of Town
Empty Sky
You’re Missing
Waitin’ On A Sunny Day
The Promised Land
Worlds Apart
Badlands
She’s The One
Mary’s Place
Dancing In The Dark
Countin’ On A Miracle
Spirit In The Night
Incident On 57th Street
Into The Fire
Night
Ramrod
Born To Run
My City Of Ruins
Born In The U.S.A.
Land Of Hope And Dreams
Thunder Road
Credits
Bonus Documentary: “Drop The Needle And Pray: The Rising On Tour”

pic pic picpic picpic

General
Unique ID                   : 186140034885788146118066013671663284548 (0x8C094446AF9C2DF3D214EAF3E5273144)
Complete name               : N:\Bruce Springsteen and The E Street Band - Live in Barcelona 2002 AMZN WEB-DL 1080p AVC DDP 5.1 - CCT\Bruce Springsteen and The E Street Band - Live in Barcelona 2002 AMZN WEB-DL 1080p AVC DDP 5.1 - CCT.mkv
Format                      : Matroska
Format version              : Version 4
File size                   : 15.9 GiB
Duration                    : 2 h 56 min
Overall bit rate mode       : Variable
Overall bit rate            : 12.9 Mb/s
Movie name                  : Bruce Springsteen and The E Street Band - Live in Barcelona - 2002 - CCT
Encoded date                : UTC 2019-05-14 09:52:06
Writing application         : mkvmerge v32.0.0 ('Astral Progressions') 64-bit
Writing library             : libebml v1.3.7 + libmatroska v1.5.0

Video
ID                          : 1
Format                      : AVC
Format/Info                 : Advanced Video Codec
Format profile              : High@L4
Format settings             : CABAC / 4 Ref Frames
Format settings, CABAC      : Yes
Format settings, Reference  : 4 frames
Codec ID                    : V_MPEG4/ISO/AVC
Duration                    : 2 h 56 min
Bit rate mode               : Variable
Bit rate                    : 12.2 Mb/s
Maximum bit rate            : 15.0 Mb/s
Width                       : 1 920 pixels
Height                      : 1 080 pixels
Display aspect ratio        : 16:9
Frame rate mode             : Constant
Frame rate                  : 29.970 (30000/1001) FPS
Color space                 : YUV
Chroma subsampling          : 4:2:0
Bit depth                   : 8 bits
Scan type                   : Progressive
Bits/(Pixel*Frame)          : 0.197
Stream size                 : 15.1 GiB (95%)
Title                       : MPEG-4 AVC / 12.2 Mbps / 1080p / 29.970 fps / 16:9 / High Profile 4.0
Writing library             : x264 core 148 r2623 d5b2374
Encoding settings           : cabac=1 / ref=4 / deblock=1:-1:-1 / analyse=0x3:0x133 / me=umh / subme=9 / psy=1 / psy_rd=1.00:0.15 / mixed_ref=1 / me_range=24 / chroma_me=1 / trellis=2 / 8x8dct=1 / cqm=0 / deadzone=21,11 / fast_pskip=1 / chroma_qp_offset=-3 / threads=34 / lookahead_threads=5 / sliced_threads=0 / nr=150 / decimate=1 / interlaced=0 / bluray_compat=0 / constrained_intra=0 / bframes=8 / b_pyramid=2 / b_adapt=2 / b_bias=0 / direct=3 / weightb=1 / open_gop=0 / weightp=2 / keyint=150 / keyint_min=76 / scenecut=0 / intra_refresh=0 / rc_lookahead=150 / rc=crf / mbtree=1 / crf=18.0 / qcomp=0.60 / qpmin=0 / qpmax=69 / qpstep=4 / vbv_maxrate=15000 / vbv_bufsize=31250 / crf_max=0.0 / nal_hrd=vbr / filler=0 / ip_ratio=1.40 / aq=3:1.00
Language                    : English
Default                     : Yes
Forced                      : No
Color range                 : Limited
Color primaries             : BT.709
Transfer characteristics    : BT.709
Matrix coefficients         : BT.709

Audio
ID                          : 2
Format                      : E-AC-3
Format/Info                 : Enhanced AC-3
Commercial name             : Dolby Digital Plus
Codec ID                    : A_EAC3
Duration                    : 2 h 56 min
Bit rate mode               : Constant
Bit rate                    : 640 kb/s
Channel(s)                  : 6 channels
Channel layout              : L R C LFE Ls Rs
Sampling rate               : 48.0 kHz
Frame rate                  : 31.250 FPS (1536 SPF)
Compression mode            : Lossy
Stream size                 : 810 MiB (5%)
Title                       : Dolby Digital Plus / 5.1 / 48 kHz / 640 kbps / 16-bit
Language                    : English
Service kind                : Complete Main
Default                     : Yes
Forced                      : No

Text
ID                          : 3
Format                      : UTF-8
Codec ID                    : S_TEXT/UTF8
Codec ID/Info               : UTF-8 Plain Text
Duration                    : 2 h 56 min
Bit rate                    : 43 b/s
Count of elements           : 1923
Stream size                 : 55.9 KiB (0%)
Title                       : English (SDH)
Language                    : English
Default                     : No
Forced                      : No

Download:

https://nitro.download/view/460E7E96CA693F1/BruceSpringsteenandTheEStreetBandLiveinBarcel0na2002AMZNWEBDL1080pAVCDDP5.1CCT.part01.rar
https://nitro.download/view/81017502411C294/BruceSpringsteenandTheEStreetBandLiveinBarcel0na2002AMZNWEBDL1080pAVCDDP5.1CCT.part02.rar
https://nitro.download/view/6EDEA8A4A4C8267/BruceSpringsteenandTheEStreetBandLiveinBarcel0na2002AMZNWEBDL1080pAVCDDP5.1CCT.part03.rar
https://nitro.download/view/65C7AB95A2E50DB/BruceSpringsteenandTheEStreetBandLiveinBarcel0na2002AMZNWEBDL1080pAVCDDP5.1CCT.part04.rar
https://nitro.download/view/30F73CEC0C29BFF/BruceSpringsteenandTheEStreetBandLiveinBarcel0na2002AMZNWEBDL1080pAVCDDP5.1CCT.part05.rar
https://nitro.download/view/1DBBB702ADB71D5/BruceSpringsteenandTheEStreetBandLiveinBarcel0na2002AMZNWEBDL1080pAVCDDP5.1CCT.part06.rar
https://nitro.download/view/BB6109C7D3B05E8/BruceSpringsteenandTheEStreetBandLiveinBarcel0na2002AMZNWEBDL1080pAVCDDP5.1CCT.part07.rar
https://nitro.download/view/308AA7EC0348F2C/BruceSpringsteenandTheEStreetBandLiveinBarcel0na2002AMZNWEBDL1080pAVCDDP5.1CCT.part08.rar
https://nitro.download/view/DCB61D26ED4C6FE/BruceSpringsteenandTheEStreetBandLiveinBarcel0na2002AMZNWEBDL1080pAVCDDP5.1CCT.part09.rar
https://nitro.download/view/35BDE7E38CF5E57/BruceSpringsteenandTheEStreetBandLiveinBarcel0na2002AMZNWEBDL1080pAVCDDP5.1CCT.part10.rar
https://nitro.download/view/C315A9916189337/BruceSpringsteenandTheEStreetBandLiveinBarcel0na2002AMZNWEBDL1080pAVCDDP5.1CCT.part11.rar
https://nitro.download/view/116C0A78EDE41F7/BruceSpringsteenandTheEStreetBandLiveinBarcel0na2002AMZNWEBDL1080pAVCDDP5.1CCT.part12.rar

or

https://subyshare.com/vncznvev5hd6/BruceSpringsteenandTheEStreetBandLiveinBarcel0na2002AMZNWEBDL1080pAVCDDP5.1CCT.part01.rar.html
https://subyshare.com/s1ebuydx9b8h/BruceSpringsteenandTheEStreetBandLiveinBarcel0na2002AMZNWEBDL1080pAVCDDP5.1CCT.part02.rar.html
https://subyshare.com/rwx6ux41pjva/BruceSpringsteenandTheEStreetBandLiveinBarcel0na2002AMZNWEBDL1080pAVCDDP5.1CCT.part03.rar.html
https://subyshare.com/4cnsy6i3wl9q/BruceSpringsteenandTheEStreetBandLiveinBarcel0na2002AMZNWEBDL1080pAVCDDP5.1CCT.part04.rar.html
https://subyshare.com/ufgszmr5cs1a/BruceSpringsteenandTheEStreetBandLiveinBarcel0na2002AMZNWEBDL1080pAVCDDP5.1CCT.part05.rar.html
https://subyshare.com/9vrho8kwzebx/BruceSpringsteenandTheEStreetBandLiveinBarcel0na2002AMZNWEBDL1080pAVCDDP5.1CCT.part06.rar.html
https://subyshare.com/h5ihnqax5wei/BruceSpringsteenandTheEStreetBandLiveinBarcel0na2002AMZNWEBDL1080pAVCDDP5.1CCT.part07.rar.html
https://subyshare.com/6xi4178fyeq0/BruceSpringsteenandTheEStreetBandLiveinBarcel0na2002AMZNWEBDL1080pAVCDDP5.1CCT.part08.rar.html
https://subyshare.com/xfws0ddxemse/BruceSpringsteenandTheEStreetBandLiveinBarcel0na2002AMZNWEBDL1080pAVCDDP5.1CCT.part09.rar.html
https://subyshare.com/wfe3p7fk04kh/BruceSpringsteenandTheEStreetBandLiveinBarcel0na2002AMZNWEBDL1080pAVCDDP5.1CCT.part10.rar.html
https://subyshare.com/nepcafenihia/BruceSpringsteenandTheEStreetBandLiveinBarcel0na2002AMZNWEBDL1080pAVCDDP5.1CCT.part11.rar.html
https://subyshare.com/95j7utdy58ta/BruceSpringsteenandTheEStreetBandLiveinBarcel0na2002AMZNWEBDL1080pAVCDDP5.1CCT.part12.rar.html