Bruce Springsteen & The E Street Band – Rock In Rio Lisboa (May 19,2016) HDTV 1080i FEED MP2 H.264

Genre: rock
Duration: 2:39:11

Quality: HDTV
Video resolution / scan: 1080i
Container: TS
Video Codec: H.264
Audio Codec: MP2
Video: H264; 1920×1080; 14.2 Mbps; 25,000 fps;
Audio: MPEG2; 384 Kbps; 48.0 KHz; 2ch

Parque da Bela Vista, Lisbon, Portugal , may 19,2016
Rock In Rio Lisboa / The River Tour 2016

Setlist

https://www.setlist.fm/setlist/bruce-springsteen/2016/parque-da-bela-vista-lisbon-portugal-73febac5.html

pic pic pic pic pic pic pic pic pic pic

Complete name                            : Bruce Springsteen & The E Street Band - Rock In Rio Lisboa(may 19,2016)(FEED-1080i-MPA2.0-@rt-v-k)-HDMania.ts
Format                                   : MPEG-TS
File size                                : 17.1 GiB
Duration                                 : 2h 39mn
Overall bit rate mode                    : Variable
Overall bit rate                         : 15.4 Mbps

Video
ID                                       : 512 (0x200)
Menu ID                                  : 1 (0x1)
Format                                   : AVC
Format/Info                              : Advanced Video Codec
Format profile                           : Main@L4
Format settings, CABAC                   : Yes
Format settings, ReFrames                : 4 frames
Format settings, GOP                     : M=3, N=15
Codec ID                                 : 27
Duration                                 : 2h 39mn
Bit rate mode                            : Variable
Bit rate                                 : 14.2 Mbps
Maximum bit rate                         : 14.5 Mbps
Width                                    : 1 920 pixels
Height                                   : 1 080 pixels
Display aspect ratio                     : 16:9
Frame rate                               : 25.000 fps
Color space                              : YUV
Chroma subsampling                       : 4:2:0
Bit depth                                : 8 bits
Scan type                                : Interlaced
Scan type, store method                  : Separated fields
Scan order                               : Top Field First
Bits/(Pixel*Frame)                       : 0.274
Stream size                              : 15.8 GiB (93%)
Color range                              : Limited
Color primaries                          : BT.709
Transfer characteristics                 : BT.709
Matrix coefficients                      : BT.709

Audio
ID                                       : 4112 (0x1010)
Menu ID                                  : 1 (0x1)
Format                                   : MPEG Audio
Format version                           : Version 1
Format profile                           : Layer 2
Mode                                     : Dual mono
Codec ID                                 : 3
Duration                                 : 2h 39mn
Bit rate mode                            : Constant
Bit rate                                 : 384 Kbps
Channel(s)                               : 2 channels
Sampling rate                            : 48.0 KHz
Compression mode                         : Lossy
Delay relative to video                  : 11ms
Stream size                              : 437 MiB (2%)
Language                                 : English
Language, more info                      : Clean effects

Download:

https://nitro.download/view/B6B1EDCF698DDF6/BruceSpringsteenTheEStreetBandR0ckInRi0Lisb0amay192016FEED1080iMPA2.0rtvkHDMania.part01.rar
https://nitro.download/view/1587A03C573FD7A/BruceSpringsteenTheEStreetBandR0ckInRi0Lisb0amay192016FEED1080iMPA2.0rtvkHDMania.part02.rar
https://nitro.download/view/0A1F155968B75D8/BruceSpringsteenTheEStreetBandR0ckInRi0Lisb0amay192016FEED1080iMPA2.0rtvkHDMania.part03.rar
https://nitro.download/view/D3D318C04ADB0E7/BruceSpringsteenTheEStreetBandR0ckInRi0Lisb0amay192016FEED1080iMPA2.0rtvkHDMania.part04.rar
https://nitro.download/view/DCA242A6E2E2284/BruceSpringsteenTheEStreetBandR0ckInRi0Lisb0amay192016FEED1080iMPA2.0rtvkHDMania.part05.rar
https://nitro.download/view/CE8CA8EF7C94456/BruceSpringsteenTheEStreetBandR0ckInRi0Lisb0amay192016FEED1080iMPA2.0rtvkHDMania.part06.rar
https://nitro.download/view/B91B338FBA1E988/BruceSpringsteenTheEStreetBandR0ckInRi0Lisb0amay192016FEED1080iMPA2.0rtvkHDMania.part07.rar
https://nitro.download/view/8C9F8E0026D064B/BruceSpringsteenTheEStreetBandR0ckInRi0Lisb0amay192016FEED1080iMPA2.0rtvkHDMania.part08.rar
https://nitro.download/view/A022DFF0DF7CA78/BruceSpringsteenTheEStreetBandR0ckInRi0Lisb0amay192016FEED1080iMPA2.0rtvkHDMania.part09.rar
https://nitro.download/view/C8071F7DDCB6B32/BruceSpringsteenTheEStreetBandR0ckInRi0Lisb0amay192016FEED1080iMPA2.0rtvkHDMania.part10.rar
https://nitro.download/view/67D40824545A18D/BruceSpringsteenTheEStreetBandR0ckInRi0Lisb0amay192016FEED1080iMPA2.0rtvkHDMania.part11.rar
https://nitro.download/view/3F3016D64A49C29/BruceSpringsteenTheEStreetBandR0ckInRi0Lisb0amay192016FEED1080iMPA2.0rtvkHDMania.part12.rar

or

https://subyshare.com/wbyge6lshszy/BruceSpringsteenTheEStreetBandR0ckInRi0Lisb0amay192016FEED1080iMPA2.0rtvkHDMania.part01.rar.html
https://subyshare.com/a54gm32i8ucc/BruceSpringsteenTheEStreetBandR0ckInRi0Lisb0amay192016FEED1080iMPA2.0rtvkHDMania.part02.rar.html
https://subyshare.com/6qzorkzlnp3e/BruceSpringsteenTheEStreetBandR0ckInRi0Lisb0amay192016FEED1080iMPA2.0rtvkHDMania.part03.rar.html
https://subyshare.com/83kmtu7qpl19/BruceSpringsteenTheEStreetBandR0ckInRi0Lisb0amay192016FEED1080iMPA2.0rtvkHDMania.part04.rar.html
https://subyshare.com/n5p6yw9272o0/BruceSpringsteenTheEStreetBandR0ckInRi0Lisb0amay192016FEED1080iMPA2.0rtvkHDMania.part05.rar.html
https://subyshare.com/0t2dv4xh511c/BruceSpringsteenTheEStreetBandR0ckInRi0Lisb0amay192016FEED1080iMPA2.0rtvkHDMania.part06.rar.html
https://subyshare.com/uvcvs70qqp4h/BruceSpringsteenTheEStreetBandR0ckInRi0Lisb0amay192016FEED1080iMPA2.0rtvkHDMania.part07.rar.html
https://subyshare.com/mc39hbvcn0z3/BruceSpringsteenTheEStreetBandR0ckInRi0Lisb0amay192016FEED1080iMPA2.0rtvkHDMania.part08.rar.html
https://subyshare.com/9c4x4zb6rrj0/BruceSpringsteenTheEStreetBandR0ckInRi0Lisb0amay192016FEED1080iMPA2.0rtvkHDMania.part09.rar.html
https://subyshare.com/rkzxr39u0mat/BruceSpringsteenTheEStreetBandR0ckInRi0Lisb0amay192016FEED1080iMPA2.0rtvkHDMania.part10.rar.html
https://subyshare.com/mktlcax9tbzu/BruceSpringsteenTheEStreetBandR0ckInRi0Lisb0amay192016FEED1080iMPA2.0rtvkHDMania.part11.rar.html
https://subyshare.com/nseu87vfjnsw/BruceSpringsteenTheEStreetBandR0ckInRi0Lisb0amay192016FEED1080iMPA2.0rtvkHDMania.part12.rar.html