Foo Fighters – BBC Radio 1’s Big Weekend (Live,24.05.2015) (2015) HDTV 1080i FEED MP2 H.264

Title: Foo Fighters – BBC Radio 1’s Big Weekend (Live,24.05.2015)
Release Date: 2015
Genre: Alternative Rock, Post-Grunge

Duration: 01:02:05
Quality: HDTV 1080i
Container: TS
Video Codec: H.264
Audio Codec: MP2
Video: H-264; 1920×1080; 30.2 Mbps; 25.000 fps
Audio: MP2; 384 Kbps; 48.0 kHz; 2 ch
Size: 13.96 GB

Tracklist

1 – Everlong
2 – Monkey Wrench
3 – Learn to Fly
4 – Something From Nothing
5 – Walk
6 – My Hero
7 – Congregation
8 – These Days
9 – Best of You
10 – All My Life

picpicpicpicpicpicpicpicpic

Complete name                            : Foo Fighters - BBC Radio 1's Big Weekend(may 24,2015)1080i-feed.@rt-v-k.HDMania.ts
Format                                   : MPEG-TS
File size                                : 14.0 GiB
Duration                                 : 1h 2mn
Overall bit rate mode                    : Variable
Overall bit rate                         : 32.2 Mbps

Video
ID                                       : 512 (0x200)
Menu ID                                  : 1 (0x1)
Format                                   : AVC
Format/Info                              : Advanced Video Codec
Format profile                           : High@L4.1
Format settings, CABAC                   : Yes
Format settings, ReFrames                : 4 frames
Codec ID                                 : 27
Duration                                 : 1h 2mn
Bit rate                                 : 30.2 Mbps
Width                                    : 1 920 pixels
Height                                   : 1 080 pixels
Display aspect ratio                     : 16:9
Frame rate                               : 25.000 fps
Color space                              : YUV
Chroma subsampling                       : 4:2:0
Bit depth                                : 8 bits
Scan type                                : Interlaced
Scan order                               : Top Field First
Bits/(Pixel*Frame)                       : 0.583
Stream size                              : 13.1 GiB (94%)
Color range                              : Limited
Color primaries                          : BT.709
Transfer characteristics                 : BT.709
Matrix coefficients                      : BT.709

Audio
ID                                       : 4112 (0x1010)
Menu ID                                  : 1 (0x1)
Format                                   : MPEG Audio
Format version                           : Version 1
Format profile                           : Layer 2
Codec ID                                 : 3
Duration                                 : 1h 2mn
Bit rate mode                            : Constant
Bit rate                                 : 384 Kbps
Channel(s)                               : 2 channels
Sampling rate                            : 48.0 KHz
Compression mode                         : Lossy
Delay relative to video                  : 109ms
Stream size                              : 171 MiB (1%)
Language                                 : English

Menu
ID                                       : 32 (0x20)
Menu ID                                  : 1 (0x1)
Duration                                 : 1h 2mn
List                                     : 512 (0x200) (AVC) / 4112 (0x1010) (MPEG Audio, English)
Language                                 :  / English
Maximum bit rate                         : 200000000

Download:

https://nitroflare.com/view/722C7515E7E3A8F/mvabc.xyz_F00FightersBBCRadi01sBigWeekendmay2420151080ifeed.rtvk.HDMania.part01.rar
https://nitroflare.com/view/92E5830AA4A7E6C/mvabc.xyz_F00FightersBBCRadi01sBigWeekendmay2420151080ifeed.rtvk.HDMania.part02.rar
https://nitroflare.com/view/6E3E6088F7B8546/mvabc.xyz_F00FightersBBCRadi01sBigWeekendmay2420151080ifeed.rtvk.HDMania.part03.rar
https://nitroflare.com/view/5CCA2DA86CD5275/mvabc.xyz_F00FightersBBCRadi01sBigWeekendmay2420151080ifeed.rtvk.HDMania.part04.rar
https://nitroflare.com/view/B9AE27CBAC849AA/mvabc.xyz_F00FightersBBCRadi01sBigWeekendmay2420151080ifeed.rtvk.HDMania.part05.rar
https://nitroflare.com/view/237B24CEC5DA54E/mvabc.xyz_F00FightersBBCRadi01sBigWeekendmay2420151080ifeed.rtvk.HDMania.part06.rar
https://nitroflare.com/view/FF9180B3A544276/mvabc.xyz_F00FightersBBCRadi01sBigWeekendmay2420151080ifeed.rtvk.HDMania.part07.rar
https://nitroflare.com/view/DBBB9D8811F679B/mvabc.xyz_F00FightersBBCRadi01sBigWeekendmay2420151080ifeed.rtvk.HDMania.part08.rar
https://nitroflare.com/view/40849E2019A6AA2/mvabc.xyz_F00FightersBBCRadi01sBigWeekendmay2420151080ifeed.rtvk.HDMania.part09.rar
https://nitroflare.com/view/8CB8CDF4030C50A/mvabc.xyz_F00FightersBBCRadi01sBigWeekendmay2420151080ifeed.rtvk.HDMania.part10.rar
https://nitroflare.com/view/9C56889B345C4C8/mvabc.xyz_F00FightersBBCRadi01sBigWeekendmay2420151080ifeed.rtvk.HDMania.part11.rar

or

https://subyshare.com/w881cow0589z/mvabc.xyz_F00FightersBBCRadi01sBigWeekendmay2420151080ifeed.rtvk.HDMania.part01.rar.html
https://subyshare.com/dryr8qlg3z4j/mvabc.xyz_F00FightersBBCRadi01sBigWeekendmay2420151080ifeed.rtvk.HDMania.part02.rar.html
https://subyshare.com/d7ukvu4kmx0s/mvabc.xyz_F00FightersBBCRadi01sBigWeekendmay2420151080ifeed.rtvk.HDMania.part03.rar.html
https://subyshare.com/b3w9jceivle0/mvabc.xyz_F00FightersBBCRadi01sBigWeekendmay2420151080ifeed.rtvk.HDMania.part04.rar.html
https://subyshare.com/uq401fqc0r96/mvabc.xyz_F00FightersBBCRadi01sBigWeekendmay2420151080ifeed.rtvk.HDMania.part05.rar.html
https://subyshare.com/217mh2b7vmdg/mvabc.xyz_F00FightersBBCRadi01sBigWeekendmay2420151080ifeed.rtvk.HDMania.part06.rar.html
https://subyshare.com/09sxg97mmvhu/mvabc.xyz_F00FightersBBCRadi01sBigWeekendmay2420151080ifeed.rtvk.HDMania.part07.rar.html
https://subyshare.com/maob6y9m8bwi/mvabc.xyz_F00FightersBBCRadi01sBigWeekendmay2420151080ifeed.rtvk.HDMania.part08.rar.html
https://subyshare.com/1hlxv6exhkoo/mvabc.xyz_F00FightersBBCRadi01sBigWeekendmay2420151080ifeed.rtvk.HDMania.part09.rar.html
https://subyshare.com/xnsewhh4m0nc/mvabc.xyz_F00FightersBBCRadi01sBigWeekendmay2420151080ifeed.rtvk.HDMania.part10.rar.html
https://subyshare.com/luo0nwie9bi0/mvabc.xyz_F00FightersBBCRadi01sBigWeekendmay2420151080ifeed.rtvk.HDMania.part11.rar.html