Foo Fighters – Landmarks Live in Concert (2017) 1080i DD5.1 HDTV MPEG2

Title: Foo Fighters – Landmarks Live in Concert
Release Date: 2017
Genre: Alternative Rock, Post-Grunge

Duration: 00:54:39
Quality: HDTV
Container: TS
Video Codec: MPEG2
Audio codec: AC3
Video: MPEG 2, 1920×1080 (16:9), 29.970 fps, 8 338 kbps
Audio #1: AC-3, 48.0 KHz, 6 ch, 384 Kbps
Audio #1: AC-3, 48.0 KHz, 2 ch, 192 Kbps
Size: 3.58 GB

Multi-Grammy-winning rock band Foo Fighters delivers an electrifying, historic performance at the famed Odeon of Herodes Atticus from the Acropolis in Athens, Greece, in the latest installment of Landmarks Live in Concert for GREAT PERFORMANCES. Captured this past July, Foo Fighters – Landmarks Live in Concert: A Great Performances Special premieres nationwide Friday, November 10 at 10 p.m. on PBS (check local listings) and will be available to stream the following day via pbs.org/gperf and PBS OTT apps.

Tracklist

Live at Odeio Herodou Attikou, Athens, Greece 10.07.2017
Times Like These
Walk
Dirty Water
These Days
My Hero
Best of You
Everlong

pic pic pic pic
pic pic pic pic

General
ID                          : 1 (0x1)
Complete name               : G:\HDBits\Foo Fighters - Landmarks Live in Concert A Great Performances Special 1080i DD5.1 HDTV MPEG2.ts
Format                      : MPEG-TS
File size                   : 3.58 GiB
Duration                    : 54 min 39 s
Overall bit rate mode       : Variable
Overall bit rate            : 9 383 kb/s
Law rating                  : TV-G

Video
ID                          : 3905 (0xF41)
Menu ID                     : 1 (0x1)
Format                      : MPEG Video
Format version              : Version 2
Format profile              : Main@High
Format settings             : CustomMatrix / BVOP
Format settings, BVOP       : Yes
Format settings, Matrix     : Custom
Format settings, GOP        : Variable
Format settings, picture st : Frame
Codec ID                    : 2
Duration                    : 54 min 39 s
Bit rate mode               : Variable
Bit rate                    : 8 338 kb/s
Maximum bit rate            : 20.0 Mb/s
Width                       : 1 920 pixels
Height                      : 1 080 pixels
Display aspect ratio        : 16:9
Active Format Description   : Full frame 16:9 image
Frame rate                  : 29.970 (30000/1001) FPS
Color space                 : YUV
Chroma subsampling          : 4:2:0
Bit depth                   : 8 bits
Scan type                   : Interlaced
Scan order                  : Top Field First
Compression mode            : Lossy
Bits/(Pixel*Frame)          : 0.134
Time code of first frame    : 00:00:00;00
Time code source            : Group of pictures header
GOP, Open/Closed            : Open
GOP, Open/Closed of first f : Closed
Stream size                 : 3.18 GiB (89%)

Audio #1
ID                          : 3906 (0xF42)
Menu ID                     : 1 (0x1)
Format                      : AC-3
Format/Info                 : Audio Coding 3
Codec ID                    : 129
Duration                    : 54 min 39 s
Bit rate mode               : Constant
Bit rate                    : 384 kb/s
Channel(s)                  : 6 channels
Channel positions           : Front: L C R, Side: L R, LFE
Sampling rate               : 48.0 kHz
Frame rate                  : 31.250 FPS (1536 SPF)
Bit depth                   : 16 bits
Compression mode            : Lossy
Delay relative to video     : 1 ms
Stream size                 : 150 MiB (4%)
Language                    : English
Service kind                : Complete Main

Audio #2
ID                          : 3907 (0xF43)
Menu ID                     : 1 (0x1)
Format                      : AC-3
Format/Info                 : Audio Coding 3
Codec ID                    : 129
Duration                    : 54 min 39 s
Bit rate mode               : Constant
Bit rate                    : 192 kb/s
Channel(s)                  : 2 channels
Channel positions           : Front: L R
Sampling rate               : 48.0 kHz
Frame rate                  : 31.250 FPS (1536 SPF)
Bit depth                   : 16 bits
Compression mode            : Lossy
Delay relative to video     : 3 ms
Stream size                 : 75.1 MiB (2%)
Language                    : Spanish
Service kind                : Complete Main

Text #1
ID                          : 3905 (0xF41)-CC1
Menu ID                     : 1 (0x1)
Format                      : EIA-608
Muxing mode                 : A/53 / DTVCC Transport
Muxing mode, more info      : Muxed in Video #1
Duration                    : 54 min 39 s
Bit rate mode               : Constant
Stream size                 : 0.00 Byte (0%)
CaptionServiceName          : CC1

Text #2
ID                          : 3905 (0xF41)-1
Menu ID                     : 1 (0x1)
Format                      : EIA-708
Muxing mode                 : A/53 / DTVCC Transport
Muxing mode, more info      : Muxed in Video #1
Duration                    : 54 min 39 s
Bit rate mode               : Constant
Stream size                 : 0.00 Byte (0%)

Download:

https://nitroflare.com/view/9A218B94A188BDE/mvabc.xyz_F00FightersLandmarksLiveinC0ncertAGreatPerf0rmancesSpecial1080iDD5.1HDTVMPEG2.part1.rar
https://nitroflare.com/view/A6C59B9A5D23ACB/mvabc.xyz_F00FightersLandmarksLiveinC0ncertAGreatPerf0rmancesSpecial1080iDD5.1HDTVMPEG2.part2.rar
https://nitroflare.com/view/56FD15C5C9CD5F2/mvabc.xyz_F00FightersLandmarksLiveinC0ncertAGreatPerf0rmancesSpecial1080iDD5.1HDTVMPEG2.part3.rar

or

https://subyshare.com/msepxcu0o19b/mvabc.xyz_F00FightersLandmarksLiveinC0ncertAGreatPerf0rmancesSpecial1080iDD5.1HDTVMPEG2.part1.rar.html
https://subyshare.com/cixd3uw0r3wb/mvabc.xyz_F00FightersLandmarksLiveinC0ncertAGreatPerf0rmancesSpecial1080iDD5.1HDTVMPEG2.part2.rar.html
https://subyshare.com/xosi4thy497t/mvabc.xyz_F00FightersLandmarksLiveinC0ncertAGreatPerf0rmancesSpecial1080iDD5.1HDTVMPEG2.part3.rar.html