Foo Fighters – Lollapalooza Brasil (2012) HDTVRip 1080i AC3 5.1 H.264

Title: Foo Fighters – Lollapalooza Brasil
Release Date: 2012
Genre: Alternative Rock, Post-Grunge

Duration: 02:36:36
Quality: HDTVRip1080i
Container: MKV
Video Codec: H.264
Audio codec: AC3
Video: MPEG4 Video (H264) 1920×1080 29.97fps 10.1Mbps
Audio: Dolby AC3 48000Hz 6ch 384kbps
Size: 11.68 GB

Tracklist

01 All My Life
02 Times Like These
03 ROpe
04 The Pretender
05 My Hero
06 Learn To Fly
07 White Limo
08 Alandria
09 Breakout
10 Cold Day In The Sun
11 Long Road To Ruin
12 Big Me
13 Stacked Actors
14 Walk
15 Generator
16 Monkey Wrench
17 Hey Johnny Park
18 This Is A Call
19 In The Flesh (Pink Floyd)
20 The Best Of You
21 Enough Space
22 – For All The Cows
23 Dear Rosemary
24 Bad Reputation (With Joan Jett)
25 I Love Rock And Roll (With Joan Jett)
26 Everlong

picpicpicpicpicpicpicpicpicpicpicpicpicpicpicpicpicpicpicpic

General
Unique ID                      : 60720857025853297464909853455665466379 (0x2DAE6963D3CE2511614D55E0C07A0C0B)
Complete name                  : E:\Foo Fighters - Live At Lollapalooza Brasil 2012.mkv
Format                         : Matroska
Format version                 : Version 2
File size                      : 11.7 GiB
Duration                       : 2h 36mn
Overall bit rate               : 10.7 Mbps
Encoded date                   : UTC 2012-04-16 04:16:50
Writing application            : gdsmux
Writing library                : Haali DirectShow Matroska Muxer 1.11.96.14

Video
ID                             : 1
Format                         : AVC
Format/Info                    : Advanced Video Codec
Format profile                 : [email protected]
Format settings, CABAC         : Yes
Format settings, ReFrames      : 4 frames
Codec ID                       : V_MPEG4/ISO/AVC
Duration                       : 2h 36mn
Bit rate                       : 10.1 Mbps
Width                          : 1 920 pixels
Height                         : 1 080 pixels
Display aspect ratio           : 16:9
Frame rate mode                : Constant
Frame rate                     : 29.940 fps
Original frame rate            : 29.970 fps
Color space                    : YUV
Chroma subsampling             : 4:2:0
Bit depth                      : 8 bits
Scan type                      : MBAFF
Bits/(Pixel*Frame)             : 0.162
Stream size                    : 11.0 GiB (94%)
Title                          : PID 4163
Default                        : No
Forced                         : No
Color primaries                : BT.709
Transfer characteristics       : BT.709
Matrix coefficients            : BT.709

Audio
ID                             : 2
Format                         : AC-3
Format/Info                    : Audio Coding 3
Mode extension                 : CM (complete main)
Format settings, Endianness    : Big
Muxing mode                    : Header stripping
Codec ID                       : A_AC3
Duration                       : 2h 36mn
Bit rate mode                  : Constant
Bit rate                       : 384 Kbps
Channel(s)                     : 6 channels
Channel positions              : Front: L C R, Side: L R, LFE
Sampling rate                  : 48.0 KHz
Bit depth                      : 16 bits
Compression mode               : Lossy
Delay relative to video        : 30ms
Stream size                    : 430 MiB (4%)
Title                          : PID 4161
Language                       : Portuguese
Default                        : No
Forced                         : No

Download:

https://nitroflare.com/view/D1BC7864C5D97AF/mvabc.xyz_F00FightersLiveAtL0llapal00zaBrasil2012.part01.rar
https://nitroflare.com/view/5DFB517690D474D/mvabc.xyz_F00FightersLiveAtL0llapal00zaBrasil2012.part02.rar
https://nitroflare.com/view/C6C27507780E8B5/mvabc.xyz_F00FightersLiveAtL0llapal00zaBrasil2012.part03.rar
https://nitroflare.com/view/8F0FC5F464C9A89/mvabc.xyz_F00FightersLiveAtL0llapal00zaBrasil2012.part04.rar
https://nitroflare.com/view/2487289E0515B77/mvabc.xyz_F00FightersLiveAtL0llapal00zaBrasil2012.part05.rar
https://nitroflare.com/view/DF04FFE18288CBF/mvabc.xyz_F00FightersLiveAtL0llapal00zaBrasil2012.part06.rar
https://nitroflare.com/view/A10A78C7A29B5CD/mvabc.xyz_F00FightersLiveAtL0llapal00zaBrasil2012.part07.rar
https://nitroflare.com/view/08DC4A470923383/mvabc.xyz_F00FightersLiveAtL0llapal00zaBrasil2012.part08.rar
https://nitroflare.com/view/E35F73A4273F6A1/mvabc.xyz_F00FightersLiveAtL0llapal00zaBrasil2012.part09.rar

or

https://subyshare.com/t3k53ejcgucg/mvabc.xyz_F00FightersLiveAtL0llapal00zaBrasil2012.part01.rar.html
https://subyshare.com/1g46h7cttkv8/mvabc.xyz_F00FightersLiveAtL0llapal00zaBrasil2012.part02.rar.html
https://subyshare.com/qz8myx56m1t0/mvabc.xyz_F00FightersLiveAtL0llapal00zaBrasil2012.part03.rar.html
https://subyshare.com/m3estmg3al6r/mvabc.xyz_F00FightersLiveAtL0llapal00zaBrasil2012.part04.rar.html
https://subyshare.com/79udjv0bpx40/mvabc.xyz_F00FightersLiveAtL0llapal00zaBrasil2012.part05.rar.html
https://subyshare.com/4b9zqbeql05v/mvabc.xyz_F00FightersLiveAtL0llapal00zaBrasil2012.part06.rar.html
https://subyshare.com/7sichueagtko/mvabc.xyz_F00FightersLiveAtL0llapal00zaBrasil2012.part07.rar.html
https://subyshare.com/ew1y9m8x7u25/mvabc.xyz_F00FightersLiveAtL0llapal00zaBrasil2012.part08.rar.html
https://subyshare.com/t6ewdbueksc5/mvabc.xyz_F00FightersLiveAtL0llapal00zaBrasil2012.part09.rar.html