Foo Fighters – Rock in Rio (2019) HDTV 1080i H.264 DD 5.1

Title: Foo Fighters – Rock in Rio
Release Date: 2019
Genre: Alternative Rock, Post-Grunge

Duration: 02:14:21
Quality: HDTV 1080i
Container: TS
Video Codec: H.264
Audio Codec: AC3
Video: MPEG4 Video (H264) 1920×1080 29.97fps 12.1 Mb/s
Audio #1: Dolby AC3 48000Hz 6ch 384kbps
Size: 12.36 GB

Tracklist

The Pretender
Learn to Fly
Run
The Sky Is a Neighborhood
Times Like These (with a drum solo)
Sunday Rain (Taylor Hawkins on Vocals)
My Hero
These Days
La Dee Da
Walk (followed by band intro – see Below.)
Under Pressure (Queen cover) (Taylor Hawkins on Vocals;… more )
All My Life
Wheels
Monkey Wrench
Big Me (slow version; dedicated to… more )
Best of You (Fan proposed on stage before the song.)
Everlong

pic pic pic pic pic pic pic pic pic pic pic pic

General
ID                             : 1 (0x1)
Complete name                  : E:\Rock in Rio 2019\Foo Fighters - Rock in Rio 2019.ts
Format                         : MPEG-TS
File size                      : 12.4 GiB
Duration                       : 2 h 14 min
Overall bit rate mode          : Variable
Overall bit rate               : 13.2 Mb/s

Video
ID                             : 1328 (0x530)
Menu ID                        : 1336 (0x538)
Format                         : AVC
Format/Info                    : Advanced Video Codec
Format profile                 : High@L4
Format settings                : CABAC / 4 Ref Frames
Format settings, CABAC         : Yes
Format settings, Reference fra : 4 frames
Codec ID                       : 27
Duration                       : 2 h 14 min
Bit rate                       : 12.1 Mb/s
Width                          : 1 920 pixels
Height                         : 1 080 pixels
Display aspect ratio           : 16:9
Frame rate                     : 29.970 (30000/1001) FPS
Color space                    : YUV
Chroma subsampling             : 4:2:0
Bit depth                      : 8 bits
Scan type                      : MBAFF
Scan type, store method        : Interleaved fields
Scan order                     : Top Field First
Bits/(Pixel*Frame)             : 0.195
Stream size                    : 11.4 GiB (92%)

Audio
ID                             : 1329 (0x531)
Menu ID                        : 1336 (0x538)
Format                         : AC-3
Format/Info                    : Audio Coding 3
Commercial name                : Dolby Digital
Codec ID                       : 129
Duration                       : 2 h 14 min
Bit rate mode                  : Constant
Bit rate                       : 384 kb/s
Channel(s)                     : 6 channels
Channel layout                 : L R C LFE Ls Rs
Sampling rate                  : 48.0 kHz
Frame rate                     : 31.250 FPS (1536 SPF)
Bit depth                      : 16 bits
Compression mode               : Lossy
Stream size                    : 369 MiB (3%)
Language                       : English
Service kind                   : Complete Main

Download:

https://nitroflare.com/view/055A69DA847EDA9/mvabc.xyz_F00FightersR0ckinRi02019.part01.rar
https://nitroflare.com/view/78594278E6124D3/mvabc.xyz_F00FightersR0ckinRi02019.part02.rar
https://nitroflare.com/view/F26CE8C2AFA0436/mvabc.xyz_F00FightersR0ckinRi02019.part03.rar
https://nitroflare.com/view/3A2C3001166F84B/mvabc.xyz_F00FightersR0ckinRi02019.part04.rar
https://nitroflare.com/view/0F07B0E8A077759/mvabc.xyz_F00FightersR0ckinRi02019.part05.rar
https://nitroflare.com/view/D3A79E37C8E2ECA/mvabc.xyz_F00FightersR0ckinRi02019.part06.rar
https://nitroflare.com/view/19DCF222CFED766/mvabc.xyz_F00FightersR0ckinRi02019.part07.rar
https://nitroflare.com/view/8D61E288F30643A/mvabc.xyz_F00FightersR0ckinRi02019.part08.rar
https://nitroflare.com/view/F3D72B1FA9AA038/mvabc.xyz_F00FightersR0ckinRi02019.part09.rar

or

https://subyshare.com/yk4rju1iktqf/mvabc.xyz_F00FightersR0ckinRi02019.part01.rar.html
https://subyshare.com/98ccpr4mtox5/mvabc.xyz_F00FightersR0ckinRi02019.part02.rar.html
https://subyshare.com/1mambza4p90j/mvabc.xyz_F00FightersR0ckinRi02019.part03.rar.html
https://subyshare.com/rhuaouhsnbxb/mvabc.xyz_F00FightersR0ckinRi02019.part04.rar.html
https://subyshare.com/jyaoda32w6uw/mvabc.xyz_F00FightersR0ckinRi02019.part05.rar.html
https://subyshare.com/wsnrswo4ac12/mvabc.xyz_F00FightersR0ckinRi02019.part06.rar.html
https://subyshare.com/7tuvwq31abcw/mvabc.xyz_F00FightersR0ckinRi02019.part07.rar.html
https://subyshare.com/fg9wriav06q4/mvabc.xyz_F00FightersR0ckinRi02019.part08.rar.html
https://subyshare.com/tbefp0vgbv43/mvabc.xyz_F00FightersR0ckinRi02019.part09.rar.html