Katy Perry feat. Kanye West – E.T. (2011) [PCM ProRes 1080i]

Title: Katy Perry Feat. Kanye West: E.T.
Year: 2011
Duration: 00:05:13
Genre: Pop
Directed by: Floria Sigismondi
Starring: Katy Perry / Shaun Ross / Kanye West
IMDB Rating: 6.8
IMDB URL: http://www.imdb.com/title/tt6659566/

Quality: Master
Video resolution / scan: 1080i
Container: MOV
Video Codec: APCH
Audio Codec: PCM
Video: Apple ProRes 422 HQ, 1920x1080i, 210 Mbps, 29.970 fps
Audio: LPCM, 2304 kbps, 48000 Hz, 2 channels (stereo)
Size: 7.73 GB

The video begins with the song “Where in the World Can My Lover Be?” by Midge Williams and Her Jazz Jesters playing in the background. As the music begins, West is shown in a Sputnik-like spacecraft revealing pictures before zooming out of the craft. In the video, Perry, as an alien, drifts through outer space while slowly evolving into a humanoid appearance before landing on an abandoned Earth. Clips are interspersed of large felines hunting game. She comes across a broken robot, resembling a spaceman; upon her kiss it turns into a naked man, played by Shaun Ross. It is eventually revealed that Perry’s legs resemble those of a gazelle. Meanwhile, West is featured in the video floating in a traveling spacecraft. The video also alludes to a presumable future, as Perry finds a box containing a skeleton of a pigeon (a species said to have gone extinct in 2030) and a pair of Vogue sunglasses, which she later wears. Throughout the video, Perry wears heavy cosmetics, including blue and pink make-up, cat-like and reptile-like eyes, and braids resembling those of Medusa. Written by Peter-Patrick76 (peter-patrick@mail.com)

General
Complete name                  : C:\Users\Admin\Downloads\Katy Perry ft. Kanye West - E.T. (USCA31100006) [LPCM-Master-ProRes-1080p].mov
Format                         : MPEG-4
Format profile                 : QuickTime
Codec ID                       : qt   2005.03 (qt  )
File size                      : 7.73 GiB
Duration                       : 5 min 12 s
Overall bit rate mode          : Variable
Overall bit rate               : 212 Mb/s
Encoded date                   : UTC 2017-02-08 13:39:57
Tagged date                    : UTC 2017-02-08 13:47:09
Writing library                : Apple QuickTime

Video
ID                             : 1
Format                         : ProRes
Format version                 : Version 0
Format profile                 : 422 HQ
Codec ID                       : apch
Duration                       : 5 min 12 s
Bit rate mode                  : Variable
Bit rate                       : 210 Mb/s
Width                          : 1 920 pixels
Height                         : 1 080 pixels
Display aspect ratio           : 16:9
Frame rate mode                : Constant
Frame rate                     : 29.970 (30000/1001) FPS
Color space                    : YUV
Chroma subsampling             : 4:2:2
Scan type                      : Progressive
Bits/(Pixel*Frame)             : 3.377
Stream size                    : 7.64 GiB (99%)
Writing library                : arh0
Language                       : English
Encoded date                   : UTC 2017-02-08 13:39:58
Tagged date                    : UTC 2017-02-08 13:47:09
Color primaries                : BT.709
Transfer characteristics       : BT.709
Matrix coefficients            : BT.709

Audio
ID                             : 2
Format                         : PCM
Format settings                : Little / Signed
Codec ID                       : in24
Duration                       : 5 min 12 s
Bit rate mode                  : Constant
Bit rate                       : 2 304 kb/s
Channel(s)                     : 2 channels
Channel layout                 : L R
Sampling rate                  : 48.0 kHz
Bit depth                      : 24 bits
Stream size                    : 85.9 MiB (1%)
Language                       : English
Encoded date                   : UTC 2017-02-08 13:39:58
Tagged date                    : UTC 2017-02-08 13:47:11

Screenshots

pic pic pic pic pic pic pic pic pic pic pic

Download

https://nitroflare.com/view/2196F42B8EFE8D4/mvabc.xyz_KatyPerryft.KanyeWestE.T.USCA31100006LPCMMasterProRes1080p.part1.rar
https://nitroflare.com/view/A901D18AB951E5D/mvabc.xyz_KatyPerryft.KanyeWestE.T.USCA31100006LPCMMasterProRes1080p.part2.rar
https://nitroflare.com/view/533AC77FD2F1E44/mvabc.xyz_KatyPerryft.KanyeWestE.T.USCA31100006LPCMMasterProRes1080p.part3.rar
https://nitroflare.com/view/9C1E2F0844A7731/mvabc.xyz_KatyPerryft.KanyeWestE.T.USCA31100006LPCMMasterProRes1080p.part4.rar
https://nitroflare.com/view/5AECF5EFC325A86/mvabc.xyz_KatyPerryft.KanyeWestE.T.USCA31100006LPCMMasterProRes1080p.part5.rar
https://nitroflare.com/view/27AE7A6B9619AF8/mvabc.xyz_KatyPerryft.KanyeWestE.T.USCA31100006LPCMMasterProRes1080p.part6.rar

or

https://subyshare.com/p6twpqwvsgcc/mvabc.xyz_KatyPerryft.KanyeWestE.T.USCA31100006LPCMMasterProRes1080p.part1.rar.html
https://subyshare.com/tne0umwk4dg4/mvabc.xyz_KatyPerryft.KanyeWestE.T.USCA31100006LPCMMasterProRes1080p.part2.rar.html
https://subyshare.com/p0xocoefi79z/mvabc.xyz_KatyPerryft.KanyeWestE.T.USCA31100006LPCMMasterProRes1080p.part3.rar.html
https://subyshare.com/l63biy2hc10p/mvabc.xyz_KatyPerryft.KanyeWestE.T.USCA31100006LPCMMasterProRes1080p.part4.rar.html
https://subyshare.com/xwbmfiq3cjlh/mvabc.xyz_KatyPerryft.KanyeWestE.T.USCA31100006LPCMMasterProRes1080p.part5.rar.html
https://subyshare.com/yh08szj8vy6h/mvabc.xyz_KatyPerryft.KanyeWestE.T.USCA31100006LPCMMasterProRes1080p.part6.rar.html