Katy Perry feat. Snoop Dogg – California Gurls (2010) [PCM ProRes 1080p]

Title: Katy Perry Feat. Snoop Dogg: California Gurls
Year: 2010
Duration: 00:04:05
Genre: Pop
Directed by: Mathew Cullen
Starring: Rachael Markarian / Katy Perry / Snoop Dogg
IMDB Rating: 6.3
IMDB URL: http://www.imdb.com/title/tt4451258/

Quality: Master
Video resolution / scan: 1080p
Container: MOV
Video Codec: ProRes
Audio Codec: PCM
Video: ProRes 0, 1920×1080 (16: 9), 23.976 fps, 160 Mb / s
Audio: PCM, 48.0 kHz, 2 ch, 2 304 kb / s
Size: 4.65 GB

The music video for “California Gurls” by Katy Perry featuring Snoop Dogg.

General
Complete name               : T:\master\Katy Perry feat. Snoop Dogg - California Gurls.mov
Format                      : MPEG-4
Format profile              : QuickTime
Codec ID                    : qt   2005.03 (qt  )
File size                   : 4.65 GiB
Duration                    : 4 min 5 s
Overall bit rate mode       : Variable
Overall bit rate            : 163 Mb/s
Encoded date                : UTC 2016-12-09 14:44:53
Tagged date                 : UTC 2016-12-09 14:49:53
Writing library             : Apple QuickTime

Video
ID                          : 1
Format                      : ProRes
Format version              : Version 0
Format profile              : 422 HQ
Codec ID                    : apch
Duration                    : 4 min 5 s
Bit rate mode               : Variable
Bit rate                    : 160 Mb/s
Width                       : 1 920 pixels
Height                      : 1 080 pixels
Display aspect ratio        : 16:9
Frame rate mode             : Constant
Frame rate                  : 23.976 (24000/1001) FPS
Color space                 : YUV
Chroma subsampling          : 4:2:2
Scan type                   : Progressive
Bits/(Pixel*Frame)          : 3.227
Stream size                 : 4.58 GiB (99%)
Writing library             : arh0
Language                    : English
Encoded date                : UTC 2016-12-09 14:44:54
Tagged date                 : UTC 2016-12-09 14:49:53
Color primaries             : BT.709
Transfer characteristics    : BT.709
Matrix coefficients         : BT.709

Audio
ID                          : 2
Format                      : PCM
Format settings             : Little / Signed
Codec ID                    : in24
Duration                    : 4 min 5 s
Bit rate mode               : Constant
Bit rate                    : 2 304 kb/s
Channel(s)                  : 2 channels
Channel layout              : L R
Sampling rate               : 48.0 kHz
Bit depth                   : 24 bits
Stream size                 : 67.4 MiB (1%)
Language                    : English
Encoded date                : UTC 2016-12-09 14:44:54
Tagged date                 : UTC 2016-12-09 14:49:53

Screenshots

pic pic pic pic

pic pic pic pic

Download

https://nitroflare.com/view/B9D38A11448708F/mvabc.xyz_KatyPerrySnoopDoggCaliforniaGurlsLPCMMasterProres1080p.part1.rar
https://nitroflare.com/view/13B2B309374BE48/mvabc.xyz_KatyPerrySnoopDoggCaliforniaGurlsLPCMMasterProres1080p.part2.rar
https://nitroflare.com/view/C34632574B45E44/mvabc.xyz_KatyPerrySnoopDoggCaliforniaGurlsLPCMMasterProres1080p.part3.rar
https://nitroflare.com/view/967AB824AAB04BF/mvabc.xyz_KatyPerrySnoopDoggCaliforniaGurlsLPCMMasterProres1080p.part4.rar

or

https://subyshare.com/d9kis2z7j8g6/mvabc.xyz_KatyPerrySnoopDoggCaliforniaGurlsLPCMMasterProres1080p.part1.rar.html
https://subyshare.com/geg8vqgpmaxj/mvabc.xyz_KatyPerrySnoopDoggCaliforniaGurlsLPCMMasterProres1080p.part2.rar.html
https://subyshare.com/8ylkty7adk6b/mvabc.xyz_KatyPerrySnoopDoggCaliforniaGurlsLPCMMasterProres1080p.part3.rar.html
https://subyshare.com/6ewogm8fhr75/mvabc.xyz_KatyPerrySnoopDoggCaliforniaGurlsLPCMMasterProres1080p.part4.rar.html