Katy Perry – Firework (2010) [MasterRip 1080p]

Title: Katy Perry: Firework
Year: 2010
Duration: 00:03:55
Genre: Dance Pop
Directed by: Dave Meyers
Starring: Katy Perry
IMDB Rating: 6.7
IMDB URL: http://www.imdb.com/title/tt4755282/

Quality: MasterRip
Container: MOV
Video Codec: H.264
Audio Codec: PCM
Video: MPEG4 Video (H264) 1920x1080p 23.976fps 29.6Mbps
Audio: PCM 48000Hz stereo 1536kbps
Size: 867 MB

A music video for Katy Perry’s song ‘Firework’.

General
Complete name                  : C:\Katy Perry - Firework (1080p-Clean-LPCM-x264-Boy).mov
Format                         : MPEG-4
Format profile                 : QuickTime
Codec ID                       : qt
File size                      : 867 MiB
Duration                       : 3mn 54s
Overall bit rate               : 31.0 Mbps
Writing application            : Lavf52.87.1

Video
ID                             : 1
Format                         : AVC
Format/Info                    : Advanced Video Codec
Format profile                 : [email protected]
Format settings, CABAC         : Yes
Format settings, ReFrames      : 4 frames
Codec ID                       : avc1
Codec ID/Info                  : Advanced Video Coding
Duration                       : 3mn 53s
Bit rate                       : 29.6 Mbps
Width                          : 1 920 pixels
Height                         : 1 080 pixels
Display aspect ratio           : 16:9
Frame rate mode                : Constant
Frame rate                     : 23.976 fps
Color space                    : YUV
Chroma subsampling             : 4:2:0
Bit depth                      : 8 bits
Scan type                      : Progressive
Bits/(Pixel*Frame)             : 0.595
Stream size                    : 824 MiB (95%)
Writing library                : x264 core 115 r1995 c1e60b9
Encoding settings              : cabac=1 / ref=3 / deblock=1:0:0 / analyse=0x3:0x113 / me=hex / subme=7 / psy=1 / psy_rd=1.00:0.00 / mixed_ref=1 / me_range=16 / chroma_me=1 / trellis=1 / 8x8dct=1 / cqm=0 / deadzone=21,11 / fast_pskip=1 / chroma_qp_offset=-2 / threads=1 / sliced_threads=0 / nr=0 / decimate=1 / interlaced=0 / bluray_compat=0 / constrained_intra=0 / bframes=3 / b_pyramid=2 / b_adapt=1 / b_bias=0 / direct=1 / weightb=1 / open_gop=0 / weightp=2 / keyint=250 / keyint_min=23 / scenecut=40 / intra_refresh=0 / rc_lookahead=40 / rc=crf / mbtree=1 / crf=16.0 / qcomp=0.60 / qpmin=10 / qpmax=51 / qpstep=4 / ip_ratio=1.40 / aq=1:1.00
Language                       : English

Audio
ID                             : 2
Format                         : PCM
Format settings, Endianness    : Little
Format settings, Sign          : Signed
Codec ID                       : sowt
Duration                       : 3mn 54s
Bit rate mode                  : Constant
Bit rate                       : 1 536 Kbps
Channel(s)                     : 2 channels
Channel positions              : Front: L R
Sampling rate                  : 48.0 KHz
Bit depth                      : 16 bits
Delay relative to video        : 83ms
Stream size                    : 43.0 MiB (5%)
Language                       : English

Screenshots

pic pic pic pic

pic pic pic pic

Download

https://nitroflare.com/view/7C8F0675D098F53/mvabc.xyz_KatyPerryFirework1080pCleanLPCMx264Boy.rar

or

https://subyshare.com/9cn8dultc3cs/mvabc.xyz_KatyPerryFirework1080pCleanLPCMx264Boy.rar.html