Katy Perry ft. Migos – Bon Appetit (2017) [PCM ProRes 1080p]

Title: Katy Perry Feat. Migos: Bon Appétit
Year: 2017
Duration: 00:04:23
Genre: Pop
Directed by: Dent de Cuir
Starring: Elando Baltimore / Roy Choi / Migos / Offset / Katy Perry
IMDB Rating: 6.1
IMDB URL: http://www.imdb.com/title/tt6967170/

Quality: Master
Video resolution / scan: 1080p
Container: MOV
Video Codec: APCH
Audio Codec: PCM
Video: Apple ProRes 422 HQ, 1920x1080p, 169 Mbps, 23.976 fps
Audio: LPCM, 2304 kbps, 48000 Hz, 2 channels (stereo)
Size: 5.26 GB

Dent De Cuir directed the song’s music video, which was released on May 12, 2017 and features chef Roy Choi. It first shows Perry wrapped in plastic before chefs cut the wrapping open and “start kneading her like dough” before she is boiled in a pot with carrots while singing her lyrics and Choi serves her as a meal. Migos watch and rap their verses as she then dances on a pole. Perry then is served a pie containing dismembered body parts of the patrons. Written by Peter-Patrick76 ([email protected])

General
Complete name                  : C:\Users\Sebastian\Downloads\Katy Perry & Migos - Bon Appetit (LPCM24-Master-ProRes-1080p)_USUV71701195.mov
Format                         : MPEG-4
Format profile                 : QuickTime
Codec ID                       : qt   2005.03 (qt  )
File size                      : 5.26 GiB
Duration                       : 4 min 23 s
Overall bit rate mode          : Variable
Overall bit rate               : 172 Mb/s
Encoded date                   : UTC 2017-05-12 17:46:50
Tagged date                    : UTC 2017-05-12 17:51:56
Writing library                : Apple QuickTime

Video
ID                             : 1
Format                         : ProRes
Format version                 : Version 0
Format profile                 : 422 HQ
Codec ID                       : apch
Duration                       : 4 min 23 s
Bit rate mode                  : Variable
Bit rate                       : 169 Mb/s
Width                          : 1 920 pixels
Height                         : 1 080 pixels
Display aspect ratio           : 16:9
Frame rate mode                : Constant
Frame rate                     : 23.976 (24000/1001) FPS
Color space                    : YUV
Chroma subsampling             : 4:2:2
Scan type                      : Progressive
Bits/(Pixel*Frame)             : 3.404
Stream size                    : 5.18 GiB (99%)
Writing library                : arh0
Language                       : English
Encoded date                   : UTC 2017-05-12 17:46:51
Tagged date                    : UTC 2017-05-12 17:51:56
Color primaries                : BT.709
Transfer characteristics       : BT.709
Matrix coefficients            : BT.709

Audio
ID                             : 2
Format                         : PCM
Format settings                : Little / Signed
Codec ID                       : in24
Duration                       : 4 min 23 s
Bit rate mode                  : Constant
Bit rate                       : 2 304 kb/s
Channel(s)                     : 2 channels
Channel layout                 : L R
Sampling rate                  : 48.0 kHz
Bit depth                      : 24 bits
Stream size                    : 72.3 MiB (1%)
Language                       : English
Encoded date                   : UTC 2017-05-12 17:46:51
Tagged date                    : UTC 2017-05-12 17:51:56

Screenshots

pic pic pic pic

Download:

https://nitroflare.com/view/EE44350474BE5EB/mvabc.xyz_KatyPerryMigosBonAppetit.part1.rar
https://nitroflare.com/view/24D4889F037B9B3/mvabc.xyz_KatyPerryMigosBonAppetit.part2.rar
https://nitroflare.com/view/17DCD7A2BA8E61F/mvabc.xyz_KatyPerryMigosBonAppetit.part3.rar
https://nitroflare.com/view/2E125220E78105D/mvabc.xyz_KatyPerryMigosBonAppetit.part4.rar

or

https://subyshare.com/hrw6f5j6kovp/mvabc.xyz_KatyPerryMigosBonAppetit.part1.rar.html
https://subyshare.com/n4hg9vrrme4y/mvabc.xyz_KatyPerryMigosBonAppetit.part2.rar.html
https://subyshare.com/26ixwtjlwitt/mvabc.xyz_KatyPerryMigosBonAppetit.part3.rar.html
https://subyshare.com/xkqt51wm0thb/mvabc.xyz_KatyPerryMigosBonAppetit.part4.rar.html