Katy Perry – Harleys In Hawaii (2019) [PCM ProRes 1080p]

Title: Katy Perry: Harleys in Hawaii
Year: 2019
Duration: 00:03:05
Genre: Pop
Directed by: Gerardo del Hierro / Pau Lopez / Manson
Starring: James Ken Blackmon / Jesi Le Rae / Katy Perry / Jon Komp Shin / Levi Stocke
IMDB Rating: 6.8
IMDB URL: http://www.imdb.com/title/tt11141814/

Quality: Master
Video resolution / scan: 1080p
Container: MOV
Video Codec: APCS
Audio Codec: PCM
Video: Apple ProRes 422 LT, 1920x1080p, 61.1 Mbps, 24 fps
Audio: LPCM, 1536 Kbps, 48000 Hz, 2 channels (stereo)
Size: 1.35 GB

Official music video for “Harleys in Hawaii” by Katy Perry.

General
Complete name                  : C:\Users\Admin\Downloads\Katy Perry - Harleys In Hawaii.mov
Format                         : MPEG-4
Format profile                 : QuickTime
Codec ID                       : qt   2005.03 (qt  )
File size                      : 1.35 GiB
Duration                       : 3 min 5 s
Overall bit rate mode          : Variable
Overall bit rate               : 62.6 Mb/s
Encoded date                   : UTC 2019-10-16 11:00:50
Tagged date                    : UTC 2019-10-16 11:01:35
Writing library                : Apple QuickTime
TIM                            : 00:00:01:00
TSC                            : 24
TSZ                            : 1

Video
ID                             : 1
Format                         : ProRes
Format version                 : Version 0
Format profile                 : 422 LT
Codec ID                       : apcs
Duration                       : 3 min 5 s
Bit rate mode                  : Variable
Bit rate                       : 61.1 Mb/s
Width                          : 1 920 pixels
Height                         : 1 080 pixels
Display aspect ratio           : 16:9
Frame rate mode                : Constant
Frame rate                     : 24.000 FPS
Color space                    : YUV
Chroma subsampling             : 4:2:2
Scan type                      : Progressive
Bits/(Pixel*Frame)             : 1.227
Stream size                    : 1.32 GiB (97%)
Writing library                : Apple
Language                       : English
Encoded date                   : UTC 2019-10-16 11:00:50
Tagged date                    : UTC 2019-10-16 11:00:50
Color primaries                : BT.709
Transfer characteristics       : BT.709
Matrix coefficients            : BT.709

Audio
ID                             : 2
Format                         : PCM
Format settings                : Little / Signed
Codec ID                       : sowt
Duration                       : 3 min 5 s
Bit rate mode                  : Constant
Bit rate                       : 1 536 kb/s
Channel(s)                     : 2 channels
Channel layout                 : L R
Sampling rate                  : 48.0 kHz
Bit depth                      : 16 bits
Stream size                    : 33.9 MiB (2%)
Language                       : English
Encoded date                   : UTC 2019-10-16 11:00:50
Tagged date                    : UTC 2019-10-16 11:00:50

Other
ID                             : 3
Type                           : Time code
Format                         : QuickTime TC
Duration                       : 3 min 5 s
Time code of first frame       : 00:00:01:00
Time code, striped             : Yes
Language                       : English
Encoded date                   : UTC 2019-10-16 11:00:50
Tagged date                    : UTC 2019-10-16 11:00:50

Screenshots

pic pic pic pic pic pic pic pic pic

Download

https://nitroflare.com/view/4D8A66929AA4512/mvabc.xyz_KatyPerryHarleysInHawaii.rar

or

https://subyshare.com/u7ja87ik773t/mvabc.xyz_KatyPerryHarleysInHawaii.rar.html