Katy Perry – Never Really Over (2019) [PCM ProRes 1080p]

Title: Katy Perry: Never Really Over
Year: 2019
Duration: 00:03:59
Genre: Pop
Directed by: Philippa Price
Starring: Katy Perry
IMDB Rating: 7.4
IMDB URL: http://www.imdb.com/title/tt10431368/

Quality: Master
Video resolution / scan: 1080p
Container: MOV
Video Codec: APCH
Audio Codec: PCM
Video: APCH 1920×1080 23.976fps 182 Mb / s
Audio: PCM 48000Hz stereo 1536kbps
Size: 5.11 GB

Official music video for “Never Really Over” by Katy Perry.

General
Complete name                  : F:\Katy Perry - Never Really Over.mov
Format                         : MPEG-4
Format profile                 : QuickTime
Codec ID                       : qt   2005.03 (qt  )
File size                      : 5.11 GiB
Duration                       : 3 min 59 s
Overall bit rate mode          : Variable
Overall bit rate               : 183 Mb/s
Encoded date                   : UTC 2019-05-28 14:08:32
Tagged date                    : UTC 2019-05-28 14:08:32
Writing library                : Apple QuickTime
TIM                            : 00:00:00:00

Video
ID                             : 1
Format                         : ProRes
Format version                 : Version 0
Format profile                 : 422 HQ
Codec ID                       : apch
Duration                       : 3 min 59 s
Bit rate mode                  : Variable
Bit rate                       : 182 Mb/s
Width                          : 1 920 pixels
Height                         : 1 080 pixels
Display aspect ratio           : 16:9
Frame rate mode                : Constant
Frame rate                     : 23.976 (24000/1001) FPS
Color space                    : YUV
Chroma subsampling             : 4:2:2
Scan type                      : Progressive
Bits/(Pixel*Frame)             : 3.658
Stream size                    : 5.07 GiB (99%)
Writing library                : aut0
Language                       : English
Encoded date                   : UTC 2019-05-28 14:08:32
Tagged date                    : UTC 2019-05-28 14:08:32
Color primaries                : BT.709
Transfer characteristics       : BT.709
Matrix coefficients            : BT.709

Audio
ID                             : 2
Format                         : PCM
Format settings                : Little / Signed
Codec ID                       : sowt
Duration                       : 3 min 59 s
Bit rate mode                  : Constant
Bit rate                       : 1 536 kb/s
Channel(s)                     : 2 channels
Channel layout                 : L R
Sampling rate                  : 48.0 kHz
Bit depth                      : 16 bits
Stream size                    : 43.8 MiB (1%)
Language                       : English
Encoded date                   : UTC 2019-05-28 14:08:32
Tagged date                    : UTC 2019-05-28 14:08:32

Other
ID                             : 3
Type                           : Time code
Format                         : QuickTime TC
Duration                       : 3 min 59 s
Frame rate                     : 23.976 (24000/1001) FPS
Time code of first frame       : 00:00:00:00
Time code, striped             : Yes
Language                       : English
Encoded date                   : UTC 2019-05-28 14:08:32
Tagged date                    : UTC 2019-05-28 14:08:32

Screenshots

pic pic pic pic pic pic pic pic

Download

https://nitroflare.com/view/675D232AD0FFD2E/mvabc.xyz_KatyPerryNeverReallyOver.part1.rar
https://nitroflare.com/view/C1275E1E3E48F28/mvabc.xyz_KatyPerryNeverReallyOver.part2.rar
https://nitroflare.com/view/1630410E69171F1/mvabc.xyz_KatyPerryNeverReallyOver.part3.rar
https://nitroflare.com/view/DB8CD890BD9A6A1/mvabc.xyz_KatyPerryNeverReallyOver.part4.rar

or

https://subyshare.com/eb5qlzzpzkoy/mvabc.xyz_KatyPerryNeverReallyOver.part1.rar.html
https://subyshare.com/yg2vcor6bvns/mvabc.xyz_KatyPerryNeverReallyOver.part2.rar.html
https://subyshare.com/3psknwti6zs4/mvabc.xyz_KatyPerryNeverReallyOver.part3.rar.html
https://subyshare.com/dbnfxlzhj8wp/mvabc.xyz_KatyPerryNeverReallyOver.part4.rar.html