Katy Perry – Rise (2016) [PCM ProRes 1080p]

Title: Katy Perry: Rise
Year: 2016
Time: 00:03:17
Genre: Pop, Electronic
Directed by: Paul Gore
Starring: Katy Perry
IMDB Rating: 6.5
IMDB URL: http://www.imdb.com/title/tt6804430/

Quality: Master
Video resolution / scan: 1080p
Container: MOV
Video Codec: APCH
Audio Codec: PCM
Video: Apple ProRes 422 HQ, 1920x1080p, 175 Mbps, 23.976 fps
Audio: LPCM, 1536 Kbps, 48000 Hz, 2 channels (stereo)
Size: 4.05 GB

Paul Gore directed the video, which was released on August 4 and featured in NBC’s Rio Olympics Preview Special the same day. The video takes place in Snow Canyon State Park and Sand Hollow State Park in Utah. It shows Perry struggling to get her parachute to fly while traveling through canyons and water. Written by Peter-Patrick76 ([email protected])

General
Complete name               : C:\Users\Admin\Downloads\Katy Perry - Rise.mov
Format                      : MPEG-4
Format profile              : QuickTime
Codec ID                    : qt   2005.03 (qt  )
File size                   : 4.05 GiB
Duration                    : 3 min 17 s
Overall bit rate mode       : Variable
Overall bit rate            : 177 Mb/s
Encoded date                : UTC 2016-08-08 23:40:27
Tagged date                 : UTC 2016-08-02 23:42:21
Writing library             : Apple QuickTime
TIM                         : 00:00:00:00
TSC                         : 24000
TSZ                         : 1001

Video
ID                          : 1
Format                      : ProRes
Format version              : Version 0
Format profile              : 422 HQ
Codec ID                    : apch
Duration                    : 3 min 17 s
Bit rate mode               : Variable
Bit rate                    : 175 Mb/s
Width                       : 1 920 pixels
Height                      : 1 080 pixels
Display aspect ratio        : 16:9
Frame rate mode             : Constant
Frame rate                  : 23.976 (24000/1001) FPS
Color space                 : YUV
Chroma subsampling          : 4:2:2
Scan type                   : Progressive
Bits/(Pixel*Frame)          : 3.519
Stream size                 : 4.02 GiB (99%)
Writing library             : aut0
Language                    : English
Encoded date                : UTC 2016-08-08 23:40:27
Tagged date                 : UTC 2016-08-08 23:40:27
Color primaries             : BT.709
Transfer characteristics    : BT.709
Matrix coefficients         : BT.709

Audio
ID                          : 2
Format                      : PCM
Format settings             : Little / Signed
Codec ID                    : sowt
Duration                    : 3 min 17 s
Bit rate mode               : Constant
Bit rate                    : 1 536 kb/s
Channel(s)                  : 2 channels
Channel layout              : L R
Sampling rate               : 48.0 kHz
Bit depth                   : 16 bits
Stream size                 : 36.1 MiB (1%)
Language                    : English
Encoded date                : UTC 2016-08-08 23:40:27
Tagged date                 : UTC 2016-08-08 23:40:27

Other
ID                          : 3
Type                        : Time code
Format                      : QuickTime TC
Duration                    : 3 min 17 s
Time code of first frame    : 00:00:00:00
Time code, striped          : Yes
Language                    : English
Encoded date                : UTC 2016-08-08 23:40:27
Tagged date                 : UTC 2016-08-08 23:40:27

Screenshots

pic pic pic pic pic pic pic pic pic

Download

https://nitroflare.com/view/98AA8CBFA9AA7E3/mvabc.xyz_KatyPerryRise1080pProResLPCM2.0.part1.rar
https://nitroflare.com/view/786C9867670A1CC/mvabc.xyz_KatyPerryRise1080pProResLPCM2.0.part2.rar
https://nitroflare.com/view/F7C1A591DAAE5CB/mvabc.xyz_KatyPerryRise1080pProResLPCM2.0.part3.rar

or

https://subyshare.com/lvug24hwzi2q/mvabc.xyz_KatyPerryRise1080pProResLPCM2.0.part1.rar.html
https://subyshare.com/836ttf8h5phl/mvabc.xyz_KatyPerryRise1080pProResLPCM2.0.part2.rar.html
https://subyshare.com/po6adtjg6xeu/mvabc.xyz_KatyPerryRise1080pProResLPCM2.0.part3.rar.html