Katy Perry – Roar (2013) [PCM ProRes 1080p]

Title: Katy Perry: Roar
Year: 2013
Duration: 00:04:35
Genre: Pop
Directed by: Grady Hall / Mark Kudsi
Starring: Katy Perry / Brian Nagel
IMDB Rating: 6.5
IMDB URL: http://www.imdb.com/title/tt3476586/

Quality: Master
Video resolution / scan: 1080p
Container: MOV
Video Codec: Apple ProRes
Audio Codec: PCM
Video: APCH 1920×1080 23.976fps 170 Mb / s
Audio: PCM 48000Hz stereo 2304kbps
Size: 5.5 GB

After a plane crash in the Amazon, Katy Perry befriends the animals and out-roars a tiger to become Queen of the Jungle.

General
Complete name: J: \ Clips mov \ Katy Perry - Roar.mov
Format: MPEG-4
Format profile: QuickTime
Codec ID: qt 2005.03 (qt)
File size: 5.50 GiB
Duration: 4 min 34 s
Overall bit rate mode: Variable
Overall bit rate: 172 Mb / s
Encoded date: UTC 2016-12-22 11:55:01
Tagged date: UTC 2016-12-22 12:00:09
Writing library: Apple QuickTime

Video
ID: 1
Format: ProRes
Format version: Version 0
Format profile: 422 HQ
Codec ID: apch
Duration: 4 min 34 s
Bit rate mode: Variable
Bit rate: 170 Mb / s
Width: 1 920 pixels
Height: 1,080 pixels
Display aspect ratio: 16: 9
Frame rate mode: Constant
Frame rate: 23.976 (24000/1001) FPS
Color space: YUV
Chroma subsampling: 4: 2: 2
Scan type: Progressive
Bits / (Pixel * Frame): 3.413
Stream size: 5.42 GiB (99%)
Writing library: arh0
Language: English
Encoded date: UTC 2016-12-22 11:55:01
Tagged date: UTC 2016-12-22 12:00:09
Color primaries: BT.709
Transfer characteristics: BT.709
Matrix coefficients: BT.709

Audio
ID: 2
Format: PCM
Format settings: Little / Signed
Codec ID: in24
Duration: 4 min 34 s
Bit rate mode: Constant
Bit rate: 2 304 kb / s
Channel (s): 2 channels
Channel layout: L R
Sampling rate: 48.0 kHz
Bit depth: 24 bits
Stream size: 75.4 MiB (1%)
Language: English
Encoded date: UTC 2016-12-22 11:55:01
Tagged date: UTC 2016-12-22 12:00:09

Screenshots

pic pic pic pic pic pic pic pic pic pic pic pic pic pic pic pic

Download

https://nitroflare.com/view/A404FBB3293DECF/mvabc.xyz_KatyPerryRoar1080pProResLPCM2.0.part1.rar
https://nitroflare.com/view/3D031F8786F5EA9/mvabc.xyz_KatyPerryRoar1080pProResLPCM2.0.part2.rar
https://nitroflare.com/view/C4847BD4AB39AA5/mvabc.xyz_KatyPerryRoar1080pProResLPCM2.0.part3.rar
https://nitroflare.com/view/EB2006AE9CF6652/mvabc.xyz_KatyPerryRoar1080pProResLPCM2.0.part4.rar

or

https://subyshare.com/8mz08bas5x2z/mvabc.xyz_KatyPerryRoar1080pProResLPCM2.0.part1.rar.html
https://subyshare.com/8z0hf6o7zdj6/mvabc.xyz_KatyPerryRoar1080pProResLPCM2.0.part2.rar.html
https://subyshare.com/s4ribv8fjymk/mvabc.xyz_KatyPerryRoar1080pProResLPCM2.0.part3.rar.html
https://subyshare.com/8p61jqgwa7mj/mvabc.xyz_KatyPerryRoar1080pProResLPCM2.0.part4.rar.html