Katy Perry – Teenage Dream (2010) [PCM ProRes 1080p]

Title: Katy Perry: Teenage Dream
Year: 2010
Duration: 00:04:07
Genre: Pop
Directed by: Woodkid
Starring: Josh Kloss / Katy Perry
IMDB Rating: 6.5
IMDB URL: http://www.imdb.com/title/tt4754658/

Quality: Master
Video resolution / scan: 1080p
Container: MOV
Video Codec: APCH
Audio Codec: PCM
Video: Apple ProRes 422 HQ, 1920x1080p, 164 Mbps, 23.976 fps
Audio: LPCM, 2304 kbps, 48000 Hz, 2 channels (stereo)
Size: 4.76 GB

A music video for Katy Perry’s song ‘Teenage Dream’.

General
Complete name                  : C:\Users\Admin\Downloads\Katy Perry - Teenage Dream (LPCM-Master-ProRes-1080p).mov
Format                         : MPEG-4
Format profile                 : QuickTime
Codec ID                       : qt   2005.03 (qt  )
File size                      : 4.76 GiB
Duration                       : 4 min 6 s
Overall bit rate mode          : Variable
Overall bit rate               : 166 Mb/s
Encoded date                   : UTC 2017-02-03 10:52:38
Tagged date                    : UTC 2017-02-03 10:59:10
Writing library                : Apple QuickTime

Video
ID                             : 1
Format                         : ProRes
Format version                 : Version 0
Format profile                 : 422 HQ
Codec ID                       : apch
Duration                       : 4 min 6 s
Bit rate mode                  : Variable
Bit rate                       : 164 Mb/s
Width                          : 1 920 pixels
Height                         : 1 080 pixels
Display aspect ratio           : 16:9
Frame rate mode                : Constant
Frame rate                     : 23.976 (24000/1001) FPS
Color space                    : YUV
Chroma subsampling             : 4:2:2
Scan type                      : Progressive
Bits/(Pixel*Frame)             : 3.290
Stream size                    : 4.70 GiB (99%)
Writing library                : arh0
Language                       : English
Encoded date                   : UTC 2017-02-03 10:52:38
Tagged date                    : UTC 2017-02-03 10:59:10
Color primaries                : BT.709
Transfer characteristics       : BT.709
Matrix coefficients            : BT.709

Audio
ID                             : 2
Format                         : PCM
Format settings                : Little / Signed
Codec ID                       : in24
Duration                       : 4 min 6 s
Bit rate mode                  : Constant
Bit rate                       : 2 304 kb/s
Channel(s)                     : 2 channels
Channel layout                 : L R
Sampling rate                  : 48.0 kHz
Bit depth                      : 24 bits
Stream size                    : 67.7 MiB (1%)
Language                       : English
Encoded date                   : UTC 2017-02-03 10:52:38
Tagged date                    : UTC 2017-02-03 10:59:11

Screenshots

pic pic pic pic pic pic pic pic pic pic pic pic pic pic pic

Download

https://nitroflare.com/view/486870A7AF42244/mvabc.xyz_KatyPerryTeenageDreamLPCMMasterProRes1080p.part1.rar
https://nitroflare.com/view/8BEF2638725BB67/mvabc.xyz_KatyPerryTeenageDreamLPCMMasterProRes1080p.part2.rar
https://nitroflare.com/view/A6650F962BB6382/mvabc.xyz_KatyPerryTeenageDreamLPCMMasterProRes1080p.part3.rar
https://nitroflare.com/view/B4534015F8E2506/mvabc.xyz_KatyPerryTeenageDreamLPCMMasterProRes1080p.part4.rar

or

https://subyshare.com/4obi7bm0mx3r/mvabc.xyz_KatyPerryTeenageDreamLPCMMasterProRes1080p.part1.rar.html
https://subyshare.com/xw67c14rj3z0/mvabc.xyz_KatyPerryTeenageDreamLPCMMasterProRes1080p.part2.rar.html
https://subyshare.com/j2vdg04xys38/mvabc.xyz_KatyPerryTeenageDreamLPCMMasterProRes1080p.part3.rar.html
https://subyshare.com/rj1ojqf9dt0x/mvabc.xyz_KatyPerryTeenageDreamLPCMMasterProRes1080p.part4.rar.html