Katy Perry – Wide Awake (2012) [PCM ProRes 1080p]

Title: Katy Perry: Wide Awake
Year: 2012
Length: 00:04:46
Genre: Electronic / Dance-pop
Directed by: Tony T. Datis
Starring: Zoey Diaz / Katy Perry
IMDB Rating: 7.3
IMDB URL: http://www.imdb.com/title/tt5865574/

Quality: Master
Container: MOV
Video Codec: Apple ProRes
Audio Codec: PCM
Video: APCH 1920x1080p 23.976fps 167Mbps
Audio: QT PCM 48000Hz stereo 1536kbps
Size: 5.44 GB

The single’s music video was directed by Lance Drake, and featured a fairy tale-like story, starring Perry and a child version of her. The video also makes references from Perry’s Teenage Dream singles and the previous Complete Confection single “Part of Me”. The video starts with Perry shooting the ending scene for the “California Gurls” video and going to her dressing room while talking with her assistant named John. She then takes off her wig, looks into the mirror, and the setting turns to a dark labyrinth, with Perry holding a lantern. The camera pans up to show the entire labyrinth, while also revealing a hill with light shining through the clouds onto it. Perry sees a strawberry, picks it off and eats it, and the walls close in on her. Perry pushes the walls, as a firework shoots from her chest into the dark sky. Written by Peter-Patrick76 ([email protected])

General
Complete name                  : E:\Katy Perry - Wide Awake (LPCM-Clean-Master-1080p)-PBG.mov
Format                         : QuickTime
Format/Info                    : Original Apple specifications
File size                      : 5.44 GiB
Duration                       : 4mn 36s
Overall bit rate mode          : Variable
Overall bit rate               : 169 Mbps
Encoded date                   : UTC 2012-06-14 01:25:02
Tagged date                    : UTC 2012-06-14 14:49:56
Writing library                : Apple QuickTime 7.7.2
com.apple.quicktime.player.mov : (Binary)

Video
ID                             : 2
Format                         : ProRes
Format version                 : Version 0
Format profile                 : High
Codec ID                       : apch
Duration                       : 4mn 36s
Source duration                : 4mn 46s
Bit rate mode                  : Variable
Bit rate                       : 167 Mbps
Width                          : 1 920 pixels
Height                         : 1 080 pixels
Display aspect ratio           : 16:9
Frame rate mode                : Constant
Frame rate                     : 23.976 fps
Color space                    : YUV
Chroma subsampling             : 4:2:2
Scan type                      : Progressive
Bits/(Pixel*Frame)             : 3.355
Stream size                    : 5.37 GiB (99%)
Source stream size             : 5.39 GiB (99%)
Writing library                : Apple
Language                       : English
Encoded date                   : UTC 2012-06-14 01:25:02
Tagged date                    : UTC 2012-06-14 14:49:57
Matrix coefficients            : BT.709

Audio
ID                             : 1
Format                         : PCM
Format settings, Endianness    : Big
Format settings, Sign          : Signed
Codec ID                       : twos
Duration                       : 4mn 36s
Source duration                : 4mn 46s
Bit rate mode                  : Constant
Bit rate                       : 1 536 Kbps
Channel(s)                     : 2 channels
Channel positions              : Front: L R
Sampling rate                  : 48.0 KHz
Bit depth                      : 16 bits
Stream size                    : 50.7 MiB (1%)
Source stream size             : 52.4 MiB (1%)
Language                       : English
Encoded date                   : UTC 2012-06-14 01:25:02
Tagged date                    : UTC 2012-06-14 14:49:56

Screenshots

pic pic pic

pic pic pic
pic pic pic

Download

https://nitroflare.com/view/48C90A83053C49B/mvabc.xyz_KatyPerryWideAwake1080pProResLPCM2.0.part1.rar
https://nitroflare.com/view/9B07FDFBB669A43/mvabc.xyz_KatyPerryWideAwake1080pProResLPCM2.0.part2.rar
https://nitroflare.com/view/E9A78DFDF5AB789/mvabc.xyz_KatyPerryWideAwake1080pProResLPCM2.0.part3.rar
https://nitroflare.com/view/9043477D10D96E9/mvabc.xyz_KatyPerryWideAwake1080pProResLPCM2.0.part4.rar

or

https://subyshare.com/onfw31qof5i5/mvabc.xyz_KatyPerryWideAwake1080pProResLPCM2.0.part1.rar.html
https://subyshare.com/qy4ezp8kj0mw/mvabc.xyz_KatyPerryWideAwake1080pProResLPCM2.0.part2.rar.html
https://subyshare.com/acjt9vlrxfw3/mvabc.xyz_KatyPerryWideAwake1080pProResLPCM2.0.part3.rar.html
https://subyshare.com/wzantjhnpsld/mvabc.xyz_KatyPerryWideAwake1080pProResLPCM2.0.part4.rar.html