Katy Perry & Zedd – 365 (2019) [PCM ProRes 1080p]

Title: Zedd & Katy Perry: 365
Year: 2019
Duration: 00:04:22
Genre: Pop
Directed by: Warren Fu
Starring: Tatjana Bluchel / Rob Callaway / Angela Nicholas / Katy Perry / Zedd
IMDB Rating: 7.2
IMDB URL: http://www.imdb.com/title/tt9783070/

Quality: Master
Video resolution / scan: 1080p
Container: MOV
Video Codec: Apple ProRes
Audio Codec: PCM
Video: APCH 1920×1080 23.976fps 173 Mb / s
Audio: PCM 48000Hz stereo 1536kbps
Size: 5.33 GB

Music video for “365” by Katy Perry featuring Zedd.

General
Complete name                  : J:\Katy Perry & Zedd - 365.mov
Format                         : MPEG-4
Format profile                 : QuickTime
Codec ID                       : qt   2005.03 (qt  )
File size                      : 5.33 GiB
Duration                       : 4 min 22 s
Overall bit rate mode          : Variable
Overall bit rate               : 174 Mb/s
Encoded date                   : UTC 2019-02-14 03:28:38
Tagged date                    : UTC 2019-02-14 03:32:30
Writing library                : Apple QuickTime
TIM                            : 00:00:00:01
TSC                            : 24000
TSZ                            : 1001

Video
ID                             : 1
Format                         : ProRes
Format version                 : Version 0
Format profile                 : 422 HQ
Codec ID                       : apch
Duration                       : 4 min 22 s
Bit rate mode                  : Variable
Bit rate                       : 173 Mb/s
Width                          : 1 920 pixels
Height                         : 1 080 pixels
Display aspect ratio           : 16:9
Frame rate mode                : Constant
Frame rate                     : 23.976 (24000/1001) FPS
Color space                    : YUV
Chroma subsampling             : 4:2:2
Scan type                      : Progressive
Bits/(Pixel*Frame)             : 3.478
Stream size                    : 5.28 GiB (99%)
Writing library                : Apple
Language                       : English
Encoded date                   : UTC 2019-02-14 03:28:38
Tagged date                    : UTC 2019-02-14 03:28:38
Color primaries                : BT.709
Transfer characteristics       : BT.709
Matrix coefficients            : BT.709
Menus                          : 0

Audio
ID                             : 2
Format                         : PCM
Format settings                : Little / Signed
Codec ID                       : sowt
Duration                       : 4 min 22 s
Bit rate mode                  : Constant
Bit rate                       : 1 536 kb/s
Channel(s)                     : 2 channels
Channel layout                 : L R
Sampling rate                  : 48.0 kHz
Bit depth                      : 16 bits
Stream size                    : 48.0 MiB (1%)
Language                       : English
Encoded date                   : UTC 2019-02-14 03:28:38
Tagged date                    : UTC 2019-02-14 03:28:38
Menus                          : 0

Screenshots

pic pic pic pic pic pic pic pic pic pic pic picpic pic pic pic

Download

https://nitroflare.com/view/74298335633313B/mvabc.xyz_KatyPerryZedd365.part1.rar
https://nitroflare.com/view/B63D339CB19A738/mvabc.xyz_KatyPerryZedd365.part2.rar
https://nitroflare.com/view/F7B6056D5C56026/mvabc.xyz_KatyPerryZedd365.part3.rar
https://nitroflare.com/view/995C076C0D68A6B/mvabc.xyz_KatyPerryZedd365.part4.rar

or

https://subyshare.com/2y6xi1gdcqkw/mvabc.xyz_KatyPerryZedd365.part1.rar.html
https://subyshare.com/s777uf8vx279/mvabc.xyz_KatyPerryZedd365.part2.rar.html
https://subyshare.com/exy4zj94hk0v/mvabc.xyz_KatyPerryZedd365.part3.rar.html
https://subyshare.com/f3e0ohtxtw91/mvabc.xyz_KatyPerryZedd365.part4.rar.html