VA – Top Of The Pops Christmas 2020 HDTV 1080i

Source: BBC HD
Genre: Pop
Duration: 00:58:14
Year of issue: 25 Dec. 2020
Quality: HDTV
Video resolution / scan: 1080i
Container: TS
Video Codec: H.264
Audio Codec: AC3, MP2
Video: MPEG4 Video (H264) 1920×1080 25fps 7 155 kb / s
Audio 1: Dolby AC3 48000Hz stereo 192kbps
Audio 2: MPEG Audio 48000Hz stereo 256kbps

Tracklist

Joel Corry & MNEK – Head & Heart
Celeste – A Little Love
Harry Styles – Watermelon Sugar
Clean Bandit and Mabel – Tick Tok
Miley Cyrus – Midnight Sky
Becky Hill – Better Off Without You
Jamie Cullum – Turn On The Lights
Dua Lipa – Don’t Start Now
AJ Tracey and Aitch – Rain
Ella Henderson – Take Care Of You
Live Lounge Stars – Stop Cryin Your Heart Out
KSI ft. Craig David & Digital Farm Animals – Really Love
Lewis Capaldi – Before You Go

pic pic pic pic pic pic pic pic pic pic pic pic pic pic pic

General
ID                             : 1 (0x1)
Complete name                  : E:\VA - Top Of The Pops Christmas 2020.ts
Format                         : MPEG-TS
File size                      : 3.26 GiB
Duration                       : 58 min 14 s
Overall bit rate mode          : Variable
Overall bit rate               : 8 003 kb/s

Video
ID                             : 5400 (0x1518)
Menu ID                        : 6941 (0x1B1D)
Format                         : AVC
Format/Info                    : Advanced Video Codec
Format profile                 : [email protected]
Format settings                : CABAC / 4 Ref Frames
Format settings, CABAC         : Yes
Format settings, Reference fra : 4 frames
Codec ID                       : 27
Duration                       : 58 min 14 s
Bit rate                       : 7 155 kb/s
Width                          : 1 920 pixels
Height                         : 1 080 pixels
Display aspect ratio           : 16:9
Frame rate                     : 25.000 FPS
Standard                       : Component
Color space                    : YUV
Chroma subsampling             : 4:2:0
Bit depth                      : 8 bits
Scan type                      : MBAFF
Scan type, store method        : Interleaved fields
Scan order                     : Top Field First
Bits/(Pixel*Frame)             : 0.138
Stream size                    : 2.91 GiB (89%)
Color range                    : Limited
Color primaries                : BT.709
Transfer characteristics       : BT.709
Matrix coefficients            : BT.709

Audio #1
ID                             : 5401 (0x1519)
Menu ID                        : 6941 (0x1B1D)
Format                         : AC-3
Format/Info                    : Audio Coding 3
Commercial name                : Dolby Digital
Codec ID                       : 6
Duration                       : 58 min 14 s
Bit rate mode                  : Constant
Bit rate                       : 192 kb/s
Channel(s)                     : 2 channels
Channel layout                 : L R
Sampling rate                  : 48.0 kHz
Frame rate                     : 31.250 FPS (1536 SPF)
Compression mode               : Lossy
Delay relative to video        : -40 ms
Stream size                    : 80.0 MiB (2%)
Language                       : English
Service kind                   : Complete Main

Audio #2
ID                             : 5402 (0x151A)
Menu ID                        : 6941 (0x1B1D)
Format                         : MPEG Audio
Format version                 : Version 1
Format profile                 : Layer 2
Codec ID                       : 3
Duration                       : 58 min 14 s
Bit rate mode                  : Constant
Bit rate                       : 256 kb/s
Channel(s)                     : 2 channels
Sampling rate                  : 48.0 kHz
Frame rate                     : 41.667 FPS (1152 SPF)
Compression mode               : Lossy
Delay relative to video        : -40 ms
Stream size                    : 107 MiB (3%)
Language                       : nar

Download:

https://nitroflare.com/view/9631B701E4613F0/mvabc.xyz_VAT0p0fTheP0psChristmas2020.part1.rar
https://nitroflare.com/view/F84F2DBA103FC40/mvabc.xyz_VAT0p0fTheP0psChristmas2020.part2.rar
https://nitroflare.com/view/E6D3CBA4C92186D/mvabc.xyz_VAT0p0fTheP0psChristmas2020.part3.rar

or

https://subyshare.com/hr40pxv7daop/mvabc.xyz_VAT0p0fTheP0psChristmas2020.part1.rar.html
https://subyshare.com/n6vhucl0ugxa/mvabc.xyz_VAT0p0fTheP0psChristmas2020.part2.rar.html
https://subyshare.com/v8qv26zdc0s1/mvabc.xyz_VAT0p0fTheP0psChristmas2020.part3.rar.html