Vienna Philharmonic New Year’s Concert 2021 HDTV 720p

Label: ORF2
Genre: Classical
Length: 03:04:22
Language: German
Conductor: Riccardo Muti
By wiener philharmoniker
Ballet: Denis Cherevychko, Alice Firenze, Sveva Garguilo, Liudmila Konovalova, Davide Dato, Ketevan Papava, Roman Lazik

Video quality: HDTV 720p
Format / Container: TS
Video Codec: H.264
Audio codec: AC3
Video stream: AVC, 1280×720 (16: 9), 50.000 fps, 8 065 kb / s
Audio stream: AC-3, 48.0 kHz, 6 ch, 448 kb / s

The 2021 Vienna Philharmonic New Year’s Concert takes place on January 1, 2021, under the baton of Riccardo Muti in the Golden Hall of the Musikverein in Vienna. After 1993, 1997, 2000, 2004, and 2018, this year’s concert will mark the 6th time that Riccardo Muti, whose close musical partnership with the Vienna Philharmonic has now extended nearly 50 years, conducts this prestigious concert event.

The 2021 New Year’s Concert will be broadcast in over 90 countries and followed by millions of television viewers around the world. The 2021 New Year’s Concert will take place without an audience.

Tracklist

Part 1 [00:35:04]
Franz von Suppè – Fatinitza March
Johann Strauss II. – Schallwellen (Sound Waves), Waltz, op. 148
Johann Strauss II. – Niko Polka, op. 228
Josef Strauss – Ohne Sorgen (Without a Care), Fast Polka, op. 271
Carl Zeller – Grubenlichter (Davy Lamps), Waltz
Carl Millöcker – In Saus und Braus (Living It Up), Galop

Intermission [00:24:55]
Happy Birthday Burgerland 1921 – 2021 – Music Film
Works by Tibor Kovac, Georg Breinschmid, Josef Haydn, Franz Liszt, Karl Goldmark, Jan L. Bella, Johann Hausl

Part 2 [01:31:14]
Franz von Suppè – Overture to “Poet and Peasant”
Karl Komzák – Bad’ner Mad’ln (Girls of Baden), Waltz, op. 257
Josef Strauss – Margherita Polka, op. 244 Johann Strauß I. Venetian Galop, op. 74
Johann Strauss II. – Frühlingsstimmen (Voices of Spring), Waltz, op. 410
Johann Strauss II. – In the Krapfenwaldl, Polka française, op. 336
Johann Strauss II. – New Melodies Quadrille. op. 254
Johann Strauss II. – Emperor Waltz, op. 437
Johann Strauss II. – Tempestuous in Love and Dance, Fast Polka, op. 393
Johann Strauss – Radetzky-Marsch, op. 228

Behind the Scenes [00:33:29]

pic pic pic pic
pic pic pic picpic pic pic picpic pic pic pic

pic pic pic pic

General
ID                          : 13 (0xD)
Complete name               : J:\Vienna Philharmonic New Year's Concert 2021\Vienna Philharmonic New Year's Concert 2021 Part2.ts
Format                      : MPEG-TS
File size                   : 5.71 GiB
Duration                    : 1 h 31 min
Overall bit rate mode       : Variable
Overall bit rate            : 8 961 kb/s

Video
ID                          : 144 (0x90)
Menu ID                     : 9037 (0x234D)
Format                      : AVC
Format/Info                 : Advanced Video Codec
Format profile              : [email protected]
Format settings             : CABAC / 4 Ref Frames
Format settings, CABAC      : Yes
Format settings, Reference  : 4 frames
Format settings, GOP        : M=3, N=32
Codec ID                    : 27
Duration                    : 1 h 31 min
Bit rate                    : 8 065 kb/s
Width                       : 1 280 pixels
Height                      : 720 pixels
Display aspect ratio        : 16:9
Frame rate                  : 50.000 FPS
Standard                    : Component
Color space                 : YUV
Chroma subsampling          : 4:2:0
Bit depth                   : 8 bits
Scan type                   : Progressive
Bits/(Pixel*Frame)          : 0.175
Stream size                 : 5.14 GiB (90%)
Color range                 : Limited
Color primaries             : BT.709
Transfer characteristics    : BT.709
Matrix coefficients         : BT.709

Audio
ID                          : 155 (0x9B)
Menu ID                     : 9037 (0x234D)
Format                      : AC-3
Format/Info                 : Audio Coding 3
Commercial name             : Dolby Digital
Codec ID                    : 6
Duration                    : 1 h 31 min
Bit rate mode               : Constant
Bit rate                    : 448 kb/s
Channel(s)                  : 6 channels
Channel layout              : L R C LFE Ls Rs
Sampling rate               : 48.0 kHz
Frame rate                  : 31.250 FPS (1536 SPF)
Compression mode            : Lossy
Delay relative to video     : 21 ms
Stream size                 : 292 MiB (5%)
Language                    : German
Service kind                : Complete Main

Download:

https://nitroflare.com/view/0DBABF9E576815D/mvabc.xyz_ViennaPhilharm0nicNewYearsC0ncert2021.part1.rar
https://nitroflare.com/view/5B7F67467E98E3D/mvabc.xyz_ViennaPhilharm0nicNewYearsC0ncert2021.part2.rar
https://nitroflare.com/view/11F603F2778C072/mvabc.xyz_ViennaPhilharm0nicNewYearsC0ncert2021.part3.rar
https://nitroflare.com/view/786B4E0297F4E23/mvabc.xyz_ViennaPhilharm0nicNewYearsC0ncert2021.part4.rar
https://nitroflare.com/view/A33BAC2F1E973C6/mvabc.xyz_ViennaPhilharm0nicNewYearsC0ncert2021.part5.rar
https://nitroflare.com/view/C79F75FBA652D6B/mvabc.xyz_ViennaPhilharm0nicNewYearsC0ncert2021.part6.rar
https://nitroflare.com/view/4352D0DFBCEEAB5/mvabc.xyz_ViennaPhilharm0nicNewYearsC0ncert2021.part7.rar
https://nitroflare.com/view/8FC393E6C2139C6/mvabc.xyz_ViennaPhilharm0nicNewYearsC0ncert2021.part8.rar
https://nitroflare.com/view/5D4BF766BEB845A/mvabc.xyz_ViennaPhilharm0nicNewYearsC0ncert2021.part9.rar

or

https://subyshare.com/onqsu1byqnzq/mvabc.xyz_ViennaPhilharm0nicNewYearsC0ncert2021.part1.rar.html
https://subyshare.com/6hy0go5n6eh0/mvabc.xyz_ViennaPhilharm0nicNewYearsC0ncert2021.part2.rar.html
https://subyshare.com/oxtkpl99plae/mvabc.xyz_ViennaPhilharm0nicNewYearsC0ncert2021.part3.rar.html
https://subyshare.com/paxmbrxvtxji/mvabc.xyz_ViennaPhilharm0nicNewYearsC0ncert2021.part4.rar.html
https://subyshare.com/cs8buameb5b3/mvabc.xyz_ViennaPhilharm0nicNewYearsC0ncert2021.part5.rar.html
https://subyshare.com/dy7xb4yv9pnd/mvabc.xyz_ViennaPhilharm0nicNewYearsC0ncert2021.part6.rar.html
https://subyshare.com/zkgkj6410uyz/mvabc.xyz_ViennaPhilharm0nicNewYearsC0ncert2021.part7.rar.html
https://subyshare.com/0hd21j7phe9x/mvabc.xyz_ViennaPhilharm0nicNewYearsC0ncert2021.part8.rar.html
https://subyshare.com/c38nvnhc45ve/mvabc.xyz_ViennaPhilharm0nicNewYearsC0ncert2021.part9.rar.html